<?xml version="1.0" standalone="no"?>
<!DOCTYPE svg PUBLIC "-//W3C//DTD SVG 1.1//EN" "http://www.w3.org/Graphics/SVG/1.1/DTD/svg11.dtd" >
<svg xmlns="http://www.w3.org/2000/svg" xmlns:xlink="http://www.w3.org/1999/xlink" version="1.1">
<metadata>
Created by FontForge 20170731 at Fri Aug 12 09:58:30 2011
 By Aleksey,,,
Copyright (c) 2011 by Abdoulla Aref. All rights reserved.&#60;abdoulla_aref@hotmail.com&#62; Member of the Arabic Font Resources : http://zakdesign.net  Arab Typographers' Group : http://www.aratypo.net
</metadata>
<defs>
<font id="Aref_Menna-Light" horiz-adv-x="0" >
  <font-face 
    font-family="Aref_Menna"
    font-weight="300"
    font-stretch="normal"
    units-per-em="2048"
    panose-1="2 0 0 0 0 0 0 0 0 0"
    ascent="1400"
    descent="-648"
    x-height="713"
    cap-height="1054"
    bbox="-245.667 -721 1710 1419.14"
    underline-thickness="50"
    underline-position="-650"
    unicode-range="U+0020-FEFC"
  />
<missing-glyph horiz-adv-x="902" 
d="M49 10v1380h784v-1380h-784zM77 38h728v1324h-728v-1324zM269 1117q26 23 51 38q50 27 105 27q86 0 137 -43.5t51 -116.5q0 -46 -21.5 -93.5t-82.5 -124.5q-62 -78 -98 -129.5t-36 -100.5q0 -39 19 -120h-10q-31 86 -31 134q0 71 79 210t79 214q0 60 -35 95t-95 35
q-40 0 -73 -17q-27 -15 -39 -25v17zM328 319l56 56q7 7 13 7q4 0 13 -7l55 -57q6 -9 6 -14q0 -8 -7 -15l-54 -60q-11 -11 -13 -11q-7 0 -12 6l-60 70q-4 5 -4 10q0 6 7 15z" />
    <glyph glyph-name="Lig.lillah" unicode="&#xfedf;&#xfee0;&#xfeea;" horiz-adv-x="1551" arabic-form="isolated" 
d="M584 190q-30 -93 -76 -129.5t-105 -48t-122.5 1.5t-115.5 48.5t-83.5 92.5t-28.5 134q2 71 30 129.5t72.5 100t101.5 64.5t115 23q95 0 152 -22t88 -57.5t42 -80.5t14 -91t3 -90t10 -75q13 -41 42.5 -64.5t65.5 -31.5t73.5 0.5t68 34t48.5 66.5t15 99q-2 34 -5.5 80.5
t-8 97.5t-9 103t-8 96.5t-6 78t-1.5 48.5q0 43 14 60.5t29.5 13t32.5 -35.5t20 -91q1 -30 2.5 -58t4 -61.5t6.5 -78t11 -108.5q8 -61 18.5 -109.5t22.5 -85.5q20 -59 50 -90.5t63.5 -37t65.5 13.5t54 59t32 97.5t1 129.5q-6 46 -15.5 94.5t-21.5 96.5t-24 94.5t-22 86.5
t-16.5 72t-6.5 52q1 58 19 83t38 24.5t39.5 -25t22.5 -71.5q4 -50 16.5 -109t27.5 -122t29 -129.5t22 -129.5q10 -91 -1.5 -168.5t-40 -136t-70.5 -95.5t-91.5 -47t-107 11t-124.5 86q-34 -42 -72 -68.5t-81 -41t-88 -14.5t-86.5 20t-76.5 64t-68 147zM572 309
q-2 84 -34.5 126t-80.5 56t-102 4t-99.5 -38.5t-76.5 -74t-31 -102.5q0 -33 22 -63t54 -52t70 -33.5t73 -6t60 32t29 77.5q2 22 13.5 37t27 24t33 12t42.5 1zM1052 1151q29 -23 42 -48.5t13.5 -48.5t-8.5 -41.5t-23.5 -28t-33 -8.5t-48.5 24q-22 -40 -52 -51.5t-60 -3
t-53.5 38.5t-25.5 82q0 11 7.5 18.5t16 9t15 -4t6.5 -23.5q0 -9 4 -22.5t12 -24.5t20.5 -18.5t29.5 -3.5q18 5 21.5 16.5t2 24t-6.5 24t-8 21.5q-8 23 -3 34.5t13 12.5q11 2 17 -3.5t10.5 -18t8 -29t10.5 -30.5t21 -21.5t38 2.5q9 5 17 12.5t8 19t-9.5 24t-29.5 27.5
q-21 15 -9 33q7 9 18 10.5t19 -5.5zM926 1256q7 -34 6 -53t-5 -25t-9 -6.5t-11.5 4t-12.5 11.5t-7 14q-5 44 -13.5 89.5t-26.5 88.5q-4 10 -1.5 19t8.5 14.5t14.5 6.5t14.5 -5q7 -23 13.5 -43.5t11.5 -39t9 -36.5t9 -39z" />
    <glyph glyph-name="lamalefmad" unicode="&#xfedf;&#xfe82;" horiz-adv-x="935" arabic-form="isolated" 
d="M386 -78q-19 -3 -34.5 9t-23.5 30.5t-5.5 36t17.5 25.5q110 53 185.5 105.5t124 113t73.5 133.5t35.5 167t10.5 215t-3 277q0 8 15 15t34.5 8.5t34 -4.5t16.5 -16q7 -66 13 -145t6 -165.5t-8.5 -174.5t-30 -172.5t-57 -160t-91 -136.5t-132.5 -103t-180 -58zM393 788
q46 -90 85 -192.5t71 -214.5q22 -72 19 -115.5t-15.5 -49.5t-40.5 27.5t-60 126.5q-35 100 -74.5 193t-80.5 183q-19 40 -22.5 67t2 41t16.5 17t27.5 -3.5t35.5 -26.5t37 -53zM450 986q-44 2 -88.5 10.5t-87.5 13.5t-85.5 2t-81.5 -23q-7 -4 -17.5 1t-20.5 17.5t-14.5 29
t0.5 34.5q10 35 33.5 49t57.5 16t78 -5.5t91.5 -15.5t96.5 -10.5t93 8.5q1 0 4 -6.5t3 -21.5t-4 -33.5t-12 -33t-19.5 -24t-26.5 -8.5z" />
    <glyph glyph-name="lamalefmadM" unicode="&#xfee0;&#xfe82;" horiz-adv-x="852" arabic-form="final" 
d="M172 -78q-19 -3 -34.5 9t-24 30.5t-6 36t17.5 25.5q110 53 185.5 105.5t124 113t73.5 133.5t36 167t11 215t-3 277q0 8 14.5 15t34 8.5t34 -4.5t16.5 -16q10 -93 15.5 -181.5t3 -176.5t-15 -175.5t-39.5 -176.5q-13 -46 10.5 -81.5t62 -60t84 -38t80.5 -13.5
q24 0 41.5 -18t17.5 -44q0 -25 -17.5 -43.5t-41.5 -18.5q-37 0 -78 13t-81 35t-74 49.5t-66 67.5q-36 -58 -72.5 -97t-82.5 -70.5t-102 -53.5t-124 -32zM178 788q46 -90 85 -192.5t72 -214.5q22 -72 19 -115.5t-15.5 -49.5t-40.5 27.5t-61 126.5q-35 100 -74.5 193
t-80.5 183q-19 40 -22.5 67t2 41t16.5 17t27.5 -3.5t35.5 -26.5t37 -53zM248 986q-44 2 -88.5 10.5t-87.5 13.5t-85.5 2t-81.5 -23q-7 -4 -17.5 1t-20.5 17.5t-14.5 29t0.5 34.5q10 35 33.5 49t57.5 16t78 -5.5t91.5 -15.5t96.5 -10.5t93 8.5q1 0 4 -6.5t3 -21.5t-4 -33.5
t-12 -33t-19.5 -24t-26.5 -8.5z" />
    <glyph glyph-name="lamalefhamzaA" unicode="&#xfedf;&#xfe84;" horiz-adv-x="850" arabic-form="isolated" 
d="M301 -78q-19 -3 -34.5 9t-23.5 30.5t-5.5 36t17.5 25.5q110 53 185.5 105.5t124 113t74 133.5t35.5 167t10 215t-3 277q0 8 15 15t34.5 8.5t34.5 -4.5t16 -16q7 -66 13 -145t6 -165.5t-8.5 -174.5t-29.5 -172.5t-57 -160t-91 -136.5t-132 -103t-181 -58zM308 788
q48 -90 86 -192.5t70 -214.5q22 -72 19 -115.5t-15 -49.5t-40 27.5t-61 126.5q-35 100 -74.5 193t-80.5 183q-27 59 -23.5 89t20 35.5t45 -14t54.5 -68.5zM350 1253q-12 5 -37.5 10t-53 5.5t-53 -7.5t-33.5 -33q-7 -25 3 -38.5t27 -19.5t38.5 -7t42.5 -2.5t37.5 -4.5
t25.5 -11q23 -19 20 -47t-27 -55q-21 -25 -53 -43t-70 -22.5t-79 9t-79 52.5q-5 5 -7 14t-0.5 17.5t5.5 13t5 4.5q12 -11 32.5 -21.5t42 -17t43 -7.5t38.5 3q24 5 35.5 10.5t16.5 14.5q2 18 -12.5 23t-31.5 8t-37.5 7t-39 12t-32.5 22t-19 37q-5 21 -2.5 42.5t11.5 42
t25.5 38t38.5 28.5q27 13 60 19t65 5t61.5 -9t50.5 -22q3 -3 2 -15.5t-10 -27t-22 -23t-28 -4.5z" />
    <glyph glyph-name="lamalefhamzaAM" unicode="&#xfee0;&#xfe84;" horiz-adv-x="852" arabic-form="final" 
d="M172 -78q-19 -3 -34.5 9t-24 30.5t-6 36t17.5 25.5q110 53 185.5 105.5t124 113t74 133.5t36 167t10.5 215t-3 277q0 8 14.5 15t34 8.5t34.5 -4.5t16 -16q10 -93 15.5 -181.5t3 -176.5t-15 -175.5t-39.5 -176.5q-13 -46 11 -81.5t62.5 -60t83.5 -38t80 -13.5q25 0 42 -18
t17 -44q0 -25 -17.5 -43.5t-41.5 -18.5q-37 0 -78 13t-81 35t-74 49.5t-66 67.5q-36 -58 -72.5 -97t-82.5 -70.5t-102 -53.5t-124 -32zM178 788q47 -90 85.5 -192.5t71.5 -214.5q22 -72 19 -115.5t-15.5 -49.5t-40 27.5t-61.5 126.5q-35 100 -74.5 193t-80.5 183
q-19 40 -22.5 67t2 41t16.5 17t27.5 -3.5t36 -26.5t36.5 -53zM220 1253q-12 5 -37.5 10t-53 5.5t-52.5 -7.5t-33 -33q-7 -25 2 -38.5t27 -19.5t39 -7t42 -2.5t38 -4.5t26 -11q22 -19 19 -47t-27 -55q-21 -25 -53 -43t-70 -22.5t-79 9t-79 52.5q-6 5 -8 14t-0.5 17.5t5.5 13
t6 4.5q12 -11 32.5 -21.5t42 -17t43.5 -7.5t38 3q24 5 36 11t15 15q2 17 -12.5 22t-31.5 8t-37.5 7t-38.5 12t-32 22t-19 37q-5 21 -2.5 42.5t11.5 42t25.5 38t38.5 28.5q27 13 59.5 19t65 5t62.5 -9t51 -22q3 -3 1.5 -15.5t-10.5 -27t-22 -23t-28 -4.5z" />
    <glyph glyph-name="lamalefhamzaB" unicode="&#xfedf;&#xfe88;" horiz-adv-x="715" arabic-form="isolated" 
d="M166 -78q-19 -3 -34.5 9t-23.5 30.5t-5.5 36t17.5 25.5q110 53 185.5 105.5t124 113t74 133.5t35.5 167t10 215t-3 277q0 8 15 15t34.5 8.5t34.5 -4.5t16 -16q7 -66 13 -145t6 -165.5t-8.5 -174.5t-29.5 -172.5t-57 -160t-91.5 -136.5t-132.5 -103t-180 -58zM173 788
q48 -90 86 -192.5t70 -214.5q22 -72 19 -115.5t-15 -49.5t-40 27.5t-61 126.5q-35 100 -74.5 193t-80.5 183q-27 59 -23.5 89t20 35.5t45 -14t54.5 -68.5zM460 -273q-12 3 -37.5 7.5t-53 5t-52.5 -7.5t-33 -33q-7 -25 2 -38t27 -19t39 -7.5t41.5 -3t37.5 -4.5t27 -11
q23 -18 19.5 -46t-27.5 -56q-20 -24 -52 -42t-70 -22.5t-79 9t-79 52.5q-5 5 -7 14t-1 17.5t4.5 12.5t5.5 4q12 -11 32.5 -21.5t42.5 -16.5t43.5 -7.5t38.5 2.5q23 5 35.5 11t14.5 16q4 16 -11 22t-32.5 8.5t-37.5 6.5t-38.5 12t-32.5 22t-20 38q-4 20 -1.5 41.5t11.5 41.5
t25.5 37.5t38.5 28.5q27 13 60 19.5t65 5.5t61.5 -9t51.5 -23q3 -2 1.5 -14.5t-10 -26.5t-21.5 -22.5t-29 -3.5z" />
    <glyph glyph-name="lamalefhamzaBM" unicode="&#xfee0;&#xfe88;" horiz-adv-x="852" arabic-form="final" 
d="M172 -78q-19 -3 -34.5 9t-24 30.5t-6 36t17.5 25.5q110 53 185.5 105.5t124 113t74 133.5t36 167t10.5 215t-3 277q0 8 14.5 15t34 8.5t34.5 -4.5t16 -16q10 -93 15.5 -181.5t3 -176.5t-15 -175.5t-39.5 -176.5q-13 -46 11 -81.5t62.5 -60t83.5 -38t80 -13.5
q24 0 41.5 -18t17.5 -44q0 -25 -17.5 -43.5t-41.5 -18.5q-37 0 -78 13t-81 35t-74 49.5t-66 67.5q-36 -58 -72.5 -97t-82.5 -70.5t-102 -53.5t-124 -32zM178 788q47 -90 85.5 -192.5t71.5 -214.5q22 -72 19 -115.5t-15.5 -49.5t-40 27.5t-61.5 126.5q-35 100 -74.5 193
t-80.5 183q-19 40 -22.5 67t2 41t16.5 17t27.5 -3.5t36 -26.5t36.5 -53zM465 -273q-12 3 -37 7.5t-53 5t-53.5 -7.5t-33.5 -33q-7 -25 3 -38.5t27.5 -19t38.5 -7l42 -3t38 -4.5t26 -11q23 -17 19.5 -45.5t-27.5 -55.5q-21 -25 -53 -43t-69.5 -22.5t-78.5 9t-79 52.5
q-6 5 -8 14t-0.5 17.5t5 12.5t6.5 4q11 -11 31.5 -21.5t42.5 -16.5t43.5 -7.5t38.5 2.5q23 5 35 11t15 15q3 17 -11.5 23t-32 8.5t-38 6.5t-39 12t-32.5 22t-20 38q-4 20 -1.5 41.5t12 41.5t26 37.5t38.5 28.5q27 13 60 19.5t65 5.5t61.5 -9t51.5 -23q3 -2 1.5 -14.5
t-10 -26.5t-21.5 -22.5t-29 -3.5z" />
    <glyph glyph-name="lamalef" unicode="&#xfedf;&#xfe8e;" horiz-adv-x="715" arabic-form="isolated" 
d="M166 -78q-19 -3 -34.5 9t-23.5 30.5t-5.5 36t17.5 25.5q110 53 185.5 105.5t124 113t74 133.5t35.5 167t10 215t-3 277q0 8 15 15t34.5 8.5t34.5 -4.5t16 -16q7 -66 13 -145t6 -165.5t-8.5 -174.5t-29.5 -172.5t-57 -160t-91.5 -136.5t-132.5 -103t-180 -58zM173 788
q48 -90 86 -192.5t70 -214.5q22 -72 19 -115.5t-15 -49.5t-40 27.5t-61 126.5q-35 100 -74.5 193t-80.5 183q-27 59 -23.5 89t20 35.5t45 -14t54.5 -68.5z" />
    <glyph glyph-name="lamalefM" unicode="&#xfee0;&#xfe8e;" horiz-adv-x="852" arabic-form="final" 
d="M172 -78q-19 -3 -34.5 9t-24 30.5t-6 36t17.5 25.5q110 53 185.5 105.5t124 113t74 133.5t36 167t10.5 215t-3 277q0 8 14.5 15t34 8.5t34.5 -4.5t16 -16q10 -93 15.5 -181.5t3 -176.5t-15 -175.5t-39.5 -176.5q-13 -46 11 -81.5t62.5 -60t83.5 -38t80 -13.5
q24 0 41.5 -18t17.5 -44q0 -25 -17.5 -43.5t-41.5 -18.5q-37 0 -78 13t-81 35t-74 49.5t-66 67.5q-36 -58 -72.5 -97t-82.5 -70.5t-102 -53.5t-124 -32zM178 788q47 -90 85.5 -192.5t71.5 -214.5q22 -72 19 -115.5t-15.5 -49.5t-40 27.5t-61.5 126.5q-35 100 -74.5 193
t-80.5 183q-19 40 -22.5 67t2 41t16.5 17t27.5 -3.5t36 -26.5t36.5 -53z" />
    <glyph glyph-name="hamza" unicode="&#x621;" horiz-adv-x="653" arabic-form="isolated" 
d="M505 444q-13 3 -34 8t-47 8.5t-54 4t-53 -4.5t-45 -17.5t-27 -35.5q-10 -34 3.5 -52.5t38.5 -27t57 -10.5t63.5 -4t57.5 -6.5t41 -17.5q18 -15 26 -33.5t5.5 -40t-13.5 -45t-29 -43.5q-32 -37 -81 -64.5t-107 -34.5t-120.5 13.5t-120.5 80.5q-9 9 -12.5 23.5t-1 28
t9.5 22t14 7.5q19 -18 49 -33t62 -24t64 -11t56 4q35 8 53.5 16t18.5 22q3 20 -16.5 27t-46 11t-57 9.5t-58 18t-50 34.5t-30.5 59q-8 31 -4 64t18 64t39 58t60 43q42 21 92 30.5t99 8t94 -13.5t78 -35q4 -3 5 -13t-3.5 -25t-13 -31t-21 -27t-27.5 -16t-32 1z" />
    <glyph glyph-name="alefmad" unicode="&#x622;" horiz-adv-x="560" arabic-form="isolated" 
d="M448 997q-43 2 -87 10.5t-87.5 14t-85.5 3t-81 -23.5q-7 -4 -18 0.5t-20.5 17t-14 29.5t1.5 35q10 35 33.5 49t57.5 15.5t77 -6t90 -15t96 -10.5t93 9l3.5 -6.5t3.5 -22t-4 -34t-11.5 -33t-19.5 -24t-27 -8.5zM392 -75q-16 -3 -29 11t-24 36.5t-18 48t-10 41.5
q-7 35 -13.5 89.5t-13.5 120t-13 137t-11 138.5t-8 125t-3 97q0 57 14 81t29.5 23t31.5 -25t18 -72q2 -40 6.5 -97.5t11 -124.5t14.5 -138t16 -137t15.5 -122t13.5 -93q3 -16 6.5 -39.5t2.5 -44.5t-9 -36.5t-27 -18.5z" />
    <glyph glyph-name="alefhamzaA" unicode="&#x623;" horiz-adv-x="459" arabic-form="isolated" 
d="M347 -75q-16 -3 -29 11t-24 36.5t-17.5 48t-9.5 41.5q-7 35 -14 89.5t-14 120t-13 137t-11 138.5t-8 125t-3 97q0 57 14 81t29 23t31.5 -25t19.5 -72q1 -40 6 -97.5t11 -124.5t14 -138t16 -137t15.5 -122t13.5 -93q3 -16 7 -39.5t3 -44.5t-9.5 -36.5t-27.5 -18.5z
M348 1249q-13 4 -38 9t-52.5 5.5t-52 -7.5t-32.5 -33q-7 -25 2 -38.5t26.5 -19.5t39 -7t42.5 -2.5t38 -4t25 -10.5q22 -19 19 -47t-26 -56q-21 -24 -53 -42t-70 -22.5t-79 9t-79 52.5q-5 5 -6.5 14t-0.5 17.5t5 13t5 4.5q11 -11 31.5 -21.5t42.5 -17t43.5 -7.5t38.5 3
q24 5 35.5 10.5t16.5 14.5q2 18 -12.5 23t-31.5 7.5t-37.5 6.5t-38.5 12t-32 22t-19 37q-5 21 -3 42.5t11 41.5t25 38t38 29q28 12 60.5 18.5t64.5 5t61.5 -9t50.5 -21.5q3 -3 2 -15.5t-10 -27t-22 -23t-28 -3.5z" />
    <glyph glyph-name="wawhamza" unicode="&#x624;" horiz-adv-x="694" arabic-form="isolated" 
d="M70 -130q68 34 134.5 70t143.5 105q-134 -4 -196.5 31t-90.5 91t-22.5 127t38.5 140.5t92 130t137 94.5q91 42 156.5 33.5t106.5 -53t58 -118t8 -161t-44 -180.5t-97 -176q-71 -95 -146.5 -148.5t-142.5 -76.5t-118 -20.5t-71.5 18t-11 40t65.5 53.5zM213 438
q-28 -36 -43.5 -75t-15.5 -76.5t17 -68.5t52.5 -50t90 -21.5t133.5 15.5q49 70 67 137t13 123.5t-32 95.5t-71 46.5t-98 -21.5t-113 -105zM543 1091q-11 5 -36.5 10t-53.5 5.5t-53 -7.5t-34 -32q-7 -25 3 -38.5t27 -19.5t38.5 -7t42.5 -2.5t38.5 -4.5t26.5 -11
q22 -19 18.5 -47t-27.5 -55q-20 -25 -52.5 -42.5t-70 -22t-78.5 9t-79 52.5q-5 5 -7 13.5t-0.5 17t5 13t5.5 3.5q12 -11 32.5 -21.5t42 -16.5t43.5 -7.5t38 1.5q24 8 36.5 13t14.5 15q2 17 -12.5 22t-31.5 8t-37.5 7t-38.5 12t-32 22t-19 37q-5 21 -2.5 42t11.5 41.5t25 38
t38 28.5q27 13 60 19t65 5t62 -9t52 -22q2 -2 0.5 -14.5t-10 -27t-22 -23.5t-28.5 -5z" />
    <glyph glyph-name="alefhamzaB" unicode="&#x625;" horiz-adv-x="460" arabic-form="isolated" 
d="M244 -75q-15 -3 -28 11t-23.5 36.5t-17 48t-9.5 41.5q-5 26 -11 70.5t-12 102t-12 124t-12 135t-11 136t-9 127t-6 106.5t-2 77q-1 56 13 79.5t29 22.5t31.5 -25t19.5 -72q1 -40 7 -110t13.5 -155.5t17 -179t19 -178t17.5 -153t13 -105.5q3 -16 7.5 -39.5t3 -44.5
t-10 -36.5t-27.5 -18.5zM348 -272q-12 3 -37 7.5t-53 5t-53 -7.5t-31 -33q-7 -24 2 -37.5t26.5 -19.5t39 -7.5t42.5 -3t38 -4t25 -10.5q22 -18 18.5 -46t-27.5 -56q-20 -24 -51.5 -42t-69.5 -22.5t-79 9t-79 52.5q-5 5 -7 14t-0.5 17.5t5 12.5t5.5 4q11 -11 31.5 -21.5
t42.5 -16.5t43.5 -7.5t38.5 2.5q24 5 36 11t14 16q4 16 -11 22t-32.5 8.5t-37 6.5t-38.5 11.5t-32.5 21.5t-19.5 38q-5 20 -2 41.5t11.5 41.5t25 37.5t38.5 28.5q27 13 59.5 19.5t64.5 5.5t61.5 -9.5t51.5 -23.5q3 -2 1.5 -14t-10 -26t-21.5 -22.5t-29 -3.5z" />
    <glyph glyph-name="yahamzaA" unicode="&#x626;" horiz-adv-x="1225" arabic-form="isolated" 
d="M679 96q52 -12 102.5 -28.5t90 -43t64 -66.5t26.5 -99q1 -50 -13 -89t-40.5 -67t-63 -46t-80.5 -25q-53 -10 -111.5 -4.5t-119 25.5t-118 54.5t-106 83.5t-86 112t-56.5 141q-5 17 -8 37t-0.5 37t11.5 30.5t26 20.5q12 4 26 2.5t26 -8t20.5 -16.5t10.5 -23
q8 -93 49.5 -162t99 -115t123.5 -69t126 -24t106.5 21t60.5 67q11 32 -2.5 51t-39.5 30t-62 19t-75 18t-79 25.5t-75 41t-62.5 64.5t-41.5 96q-21 84 1 157.5t73 133t125.5 102.5t157.5 64.5t169 20t162 -29.5q31 -10 48 -26t24 -34t4.5 -35.5t-11.5 -30.5
q-33 -43 -59 -53.5t-48 -3.5q-133 34 -228.5 39.5t-161 -9t-103 -46.5t-50.5 -72t-5 -83.5t31.5 -81t60.5 -65.5t81 -38zM348 650q-13 5 -38 9.5t-52.5 5t-52 -7.5t-32.5 -32q-7 -25 2 -38.5t26.5 -19.5t39 -7.5t42.5 -3t38 -4.5t26 -11q21 -17 18 -45.5t-26 -57.5
q-20 -23 -52.5 -41t-70.5 -22.5t-79 9t-79 52.5q-5 5 -6.5 14t-0.5 17.5t4.5 13t4.5 3.5q12 -11 32.5 -21t42.5 -16.5t43 -8t39 1.5q25 7 36 13t16 14q2 18 -12.5 23t-31.5 8t-37.5 6.5t-38.5 11.5t-32 22t-19 38q-5 21 -3 42t11 41.5t25 38t38 28.5q28 13 60.5 19t64.5 5
t61.5 -9t50.5 -22q3 -3 1.5 -15.5t-10 -27t-21 -23t-28.5 -3.5z" />
    <glyph glyph-name="alef" unicode="&#x627;" horiz-adv-x="293" arabic-form="isolated" 
d="M204 -75q-15 -3 -28 11t-23.5 36.5t-16.5 48t-9 41.5q-5 26 -11 70.5t-12.5 102t-13 124t-12.5 135t-11 136t-9 127t-6 106.5t-2 77q0 56 14 79.5t29.5 22.5t31.5 -25t18 -72q1 -40 7 -110t14 -155.5t17.5 -179t18.5 -178t17.5 -153t14.5 -105.5q3 -16 7 -39.5t2.5 -44.5
t-9.5 -36.5t-28 -18.5z" />
    <glyph glyph-name="ba" unicode="&#x628;" horiz-adv-x="1020" arabic-form="isolated" 
d="M72 176q-16 46 -19 86t3.5 67.5t17.5 39.5t23 8t28.5 -30.5t29.5 -81.5q18 -76 65 -132.5t110.5 -92.5t136.5 -49.5t143 -1t130 51.5t96 108q33 62 58.5 94t40 39t22 -0.5t10.5 -29t-1.5 -54.5t-17.5 -69q-24 -68 -69 -115.5t-104 -76.5t-128 -40.5t-139.5 -6t-139 27
t-127 58.5t-102.5 87t-67 113zM504 -232q16 0 29.5 -6t24 -17.5t17 -26t6.5 -31.5t-6.5 -32t-17 -26.5t-24 -17.5t-29.5 -6t-30 6t-25 17.5t-17 26.5t-6 32q0 34 22.5 57.5t55.5 23.5z" />
    <glyph glyph-name="tamar" unicode="&#x629;" horiz-adv-x="560" arabic-form="isolated" 
d="M188 512q-29 12 -46.5 16.5t-32.5 10t-24 11.5t-10 13t3 24t11 34.5t15.5 28t14.5 9.5q72 -14 140 -38.5t120 -50.5q48 -24 77 -61t41.5 -80.5t10 -91.5t-16.5 -94.5t-39 -88.5t-57 -73t-69.5 -48.5t-77.5 -16.5q-41 1 -78 23.5t-64.5 60.5t-41.5 87.5t-8.5 103t34 108
t98.5 113.5zM247 146q63 2 97.5 35.5t43.5 77t-5.5 85t-49.5 60.5q-47 24 -82.5 13.5t-58 -39.5t-32 -69t-3.5 -75.5t27.5 -62t62.5 -25.5zM128 960q32 0 54.5 -23.5t22.5 -58.5q0 -17 -6 -31.5t-16.5 -25.5t-24.5 -17t-30 -6q-34 0 -56 23t-22 57q0 35 22 58.5t56 23.5z
M317 906q16 0 29.5 -6t24.5 -17t17 -25.5t6 -31.5t-6.5 -32t-17 -26.5t-24 -17.5t-29.5 -6t-30 6t-24.5 17.5t-17 26.5t-6.5 32q0 34 22.5 57t55.5 23z" />
    <glyph glyph-name="ta" unicode="&#x62a;" horiz-adv-x="1020" arabic-form="isolated" 
d="M72 176q-16 46 -19 86t3.5 67.5t17.5 39.5t23 8t28.5 -30.5t29.5 -81.5q18 -76 65 -132.5t110.5 -92.5t136.5 -49.5t143 -1t130 51.5t96 108q33 62 58.5 94t40 39t22 -0.5t10.5 -29t-1.5 -54.5t-17.5 -69q-24 -68 -69 -115.5t-104 -76.5t-128 -40.5t-139.5 -6t-139 27
t-127 58.5t-102.5 87t-67 113zM422 470q33 0 55 -23.5t22 -58.5q0 -33 -22 -56.5t-55 -23.5q-34 0 -56 23.5t-22 56.5q0 35 22 58.5t56 23.5zM610 417q33 0 56 -23.5t23 -59.5q0 -33 -23 -56.5t-56 -23.5t-54.5 23.5t-21.5 56.5q0 36 21.5 59.5t54.5 23.5z" />
    <glyph glyph-name="tha" unicode="&#x62b;" horiz-adv-x="1020" arabic-form="isolated" 
d="M72 176q-16 46 -19 86t3.5 67.5t17.5 39.5t23 8t28.5 -30.5t29.5 -81.5q18 -76 65 -132.5t110.5 -92.5t136.5 -49.5t143 -1t130 51.5t96 108q33 62 58.5 94t40 39t22 -0.5t10.5 -29t-1.5 -54.5t-17.5 -69q-24 -68 -69 -115.5t-104 -76.5t-128 -40.5t-139.5 -6t-139 27
t-127 58.5t-102.5 87t-67 113zM422 470q33 0 55 -23.5t22 -58.5q0 -33 -22 -56.5t-55 -23.5q-34 0 -56 23.5t-22 56.5q0 35 22 58.5t56 23.5zM610 417q33 0 56 -23.5t23 -59.5q0 -33 -23 -56.5t-56 -23.5t-54.5 23.5t-21.5 56.5q0 36 21.5 59.5t54.5 23.5zM564 628
q34 0 56.5 -23t22.5 -57q0 -17 -6.5 -32t-17 -26.5t-24.5 -18t-31 -6.5q-16 0 -30 6.5t-24.5 17.5t-16.5 26.5t-6 32.5t6 31.5t16.5 25.5t24.5 17t30 6z" />
    <glyph glyph-name="jeem" unicode="&#x62c;" horiz-adv-x="967" arabic-form="isolated" 
d="M50 399q2 52 29 84t67 47t87.5 15t88.5 -11q58 -14 122.5 -36.5t130.5 -48.5l132 -52t127 -47q15 -6 29.5 -10.5t26 -11.5t18.5 -16.5t8 -24.5q1 -29 -4 -42.5t-14 -19t-23.5 -6t-32.5 -0.5q-67 -2 -150 -20t-164.5 -49t-154 -74t-115.5 -95q-60 -70 -77 -150t10.5 -152
t99.5 -128t190 -82q51 -11 103 -8.5t99 17t86.5 40.5t65.5 63q20 30 33.5 34t20 -4.5t7 -32t-10 -54.5t-33.5 -64.5t-62 -61.5t-95 -47t-132 -20q-117 -2 -207 29.5t-151 85.5t-93 126.5t-33.5 152.5t28 163.5t92.5 159t160 138.5t257 111q-86 34 -146 58.5t-114 41
t-100.5 21.5t-82.5 -14q-2 -28 -17.5 -43.5t-38.5 -16.5q-12 -2 -24 3t-21.5 13t-15.5 18.5t-6 20.5zM518 -108q16 0 30.5 -6t25 -17.5t17 -26.5t6.5 -32q0 -34 -23 -57.5t-56 -23.5t-55.5 23.5t-22.5 57.5q0 17 6.5 32t17 26.5t24.5 17.5t30 6z" />
    <glyph glyph-name="ha" unicode="&#x62d;" horiz-adv-x="967" arabic-form="isolated" 
d="M50 399q2 52 29 84t67 47t87.5 15t88.5 -11q58 -14 122.5 -36.5t130.5 -48.5l132 -52t127 -47q15 -6 29.5 -10.5t26 -11.5t18.5 -16.5t8 -24.5q1 -29 -4 -42.5t-14 -19t-23.5 -6t-32.5 -0.5q-67 -2 -150 -20t-164.5 -49t-154 -74t-115.5 -95q-60 -70 -77 -150t10.5 -152
t99.5 -128t190 -82q51 -11 103 -8.5t99 17t86.5 40.5t65.5 63q20 30 33.5 34t20 -4.5t7 -32t-10 -54.5t-33.5 -64.5t-62 -61.5t-95 -47t-132 -20q-117 -2 -207 29.5t-151 85.5t-93 126.5t-33.5 152.5t28 163.5t92.5 159t160 138.5t257 111q-86 34 -146 58.5t-114 41
t-100.5 21.5t-82.5 -14q-2 -28 -17.5 -43.5t-38.5 -16.5q-12 -2 -24 3t-21.5 13t-15.5 18.5t-6 20.5z" />
    <glyph glyph-name="kha" unicode="&#x62e;" horiz-adv-x="967" arabic-form="isolated" 
d="M50 399q2 52 29 84t67 47t87.5 15t88.5 -11q58 -14 122.5 -36.5t130.5 -48.5l132 -52t127 -47q15 -6 29.5 -10.5t26 -11.5t18.5 -16.5t8 -24.5q1 -29 -4 -42.5t-14 -19t-23.5 -6t-32.5 -0.5q-67 -2 -150 -20t-164.5 -49t-154 -74t-115.5 -95q-60 -70 -77 -150t10.5 -152
t99.5 -128t190 -82q51 -11 103 -8.5t99 17t86.5 40.5t65.5 63q20 30 33.5 34t20 -4.5t7 -32t-10 -54.5t-33.5 -64.5t-62 -61.5t-95 -47t-132 -20q-117 -2 -207 29.5t-151 85.5t-93 126.5t-33.5 152.5t28 163.5t92.5 159t160 138.5t257 111q-86 34 -146 58.5t-114 41
t-100.5 21.5t-82.5 -14q-2 -28 -17.5 -43.5t-38.5 -16.5q-12 -2 -24 3t-21.5 13t-15.5 18.5t-6 20.5zM256 813q16 0 30 -6t25 -17t17 -25.5t6 -31.5t-6 -31.5t-17 -26t-25 -17.5t-30 -6t-30 6t-25 17.5t-17 26t-6 31.5q0 34 22.5 57t55.5 23z" />
    <glyph glyph-name="dal" unicode="&#x62f;" horiz-adv-x="929" arabic-form="isolated" 
d="M50 129q0 25 17 43.5t42 18.5q47 0 110.5 1.5t131 9t134 24t119 47.5t85.5 79.5t32 118.5q0 46 -33 68.5t-82.5 29t-109.5 3.5t-120 -7.5t-113 -6.5t-88 6q-12 2 -29 12t-30.5 23.5t-19 29t3 30t40 29.5t94.5 26q85 15 172.5 15.5t166.5 -13.5t144 -41.5t104 -69
t48.5 -97t-21.5 -126.5q-29 -66 -79 -120.5t-111.5 -96t-131.5 -69.5t-138 -44t-130.5 -18.5t-109 8t-72.5 32.5t-26 55z" />
    <glyph glyph-name="thal" unicode="&#x630;" horiz-adv-x="929" arabic-form="isolated" 
d="M50 129q0 25 17 43.5t42 18.5q47 0 110.5 1.5t131 9t134 24t119 47.5t85.5 79.5t32 118.5q0 46 -33 68.5t-82.5 29t-109.5 3.5t-120 -7.5t-113 -6.5t-88 6q-12 2 -29 12t-30.5 23.5t-19 29t3 30t40 29.5t94.5 26q85 15 172.5 15.5t166.5 -13.5t144 -41.5t104 -69
t48.5 -97t-21.5 -126.5q-29 -66 -79 -120.5t-111.5 -96t-131.5 -69.5t-138 -44t-130.5 -18.5t-109 8t-72.5 32.5t-26 55zM279 1004q16 0 30.5 -6t25 -17.5t17 -26.5t6.5 -32q0 -34 -23 -57t-56 -23t-55.5 23t-22.5 57q0 17 6.5 32t17 26.5t24.5 17.5t30 6z" />
    <glyph glyph-name="ra" unicode="&#x631;" horiz-adv-x="656" arabic-form="isolated" 
d="M581 297q-20 -42 -48.5 -94t-62.5 -106t-71 -107t-72.5 -97t-67 -76.5t-55.5 -44.5q-23 -13 -53.5 -14.5t-61 5t-57 20.5t-32.5 22q47 18 97 56t92 82.5t78 94t68 98.5t61 93.5t57 79.5q17 21 40 40t45 30.5t38 14.5t23 -3t4.5 -28t-22.5 -66z" />
    <glyph glyph-name="zai" unicode="&#x632;" horiz-adv-x="670" arabic-form="isolated" 
d="M581 297q-20 -42 -48.5 -94t-62.5 -106t-71 -107t-72.5 -97t-67 -76.5t-55.5 -44.5q-23 -13 -53.5 -14.5t-61 5t-57 20.5t-32.5 22q47 18 97 56t92 82.5t78 94t68 98.5t61 93.5t57 79.5q17 21 40 40t45 30.5t38 14.5t23 -3t4.5 -28t-22.5 -66zM541 657q16 0 30 -6
t25 -17.5t17.5 -26t6.5 -31.5t-6.5 -31.5t-17.5 -26t-25 -17.5t-30 -6q-33 0 -55 23.5t-22 57.5q0 17 6 31.5t16.5 26t24.5 17.5t30 6z" />
    <glyph glyph-name="seen" unicode="&#x633;" horiz-adv-x="1546" arabic-form="isolated" 
d="M1162 177q-38 -73 -68.5 -101t-58.5 -36.5t-53.5 -1.5t-48 21.5t-38.5 32.5t-35 46q-37 -63 -74.5 -110.5t-88 -84t-115.5 -58.5t-147 -20q-63 1 -121.5 23.5t-107.5 65t-86.5 107.5t-55.5 149q-14 62 -4.5 105t31.5 70t50.5 37.5t55 7t45.5 -18.5t23 -42t-12.5 -66.5
t-69.5 -94.5q14 -67 39.5 -111.5t60 -73t75.5 -41.5t85 -12q64 1 115.5 19t93 47t74.5 66t58.5 77t44.5 80t32 69q21 4 41.5 -1t28.5 -24q0 3 -7.5 -7t-16.5 -26t-14 -36t6 -37q33 -49 74 -51.5t77.5 27t63 83t35.5 114.5q33 14 43 15l10 1q8 -26 6.5 -60t3 -68t25.5 -60.5
t75 -34.5q37 -5 56.5 8t25 36t3.5 51.5t-6 57.5t-5.5 54.5t3.5 43.5q2 5 10 6.5t23 -1.5t33.5 -8t27.5 -6q0 -23 4 -62.5t6.5 -80.5t-1 -78.5t-18 -66t-42.5 -45.5t-78 -16q-56 2 -105.5 29.5t-86.5 91.5z" />
    <glyph glyph-name="sheen" unicode="&#x634;" horiz-adv-x="1546" arabic-form="isolated" 
d="M1162 177q-38 -73 -68.5 -101t-58.5 -36.5t-53.5 -1.5t-48 21.5t-38.5 32.5t-35 46q-37 -63 -74.5 -110.5t-88 -84t-115.5 -58.5t-147 -20q-63 1 -121.5 23.5t-107.5 65t-86.5 107.5t-55.5 149q-14 62 -4.5 105t31.5 70t50.5 37.5t55 7t45.5 -18.5t23 -42t-12.5 -66.5
t-69.5 -94.5q14 -67 39.5 -111.5t60 -73t75.5 -41.5t85 -12q64 1 115.5 19t93 47t74.5 66t58.5 77t44.5 80t32 69q21 4 41.5 -1t28.5 -24q0 3 -7.5 -7t-16.5 -26t-14 -36t6 -37q33 -49 74 -51.5t77.5 27t63 83t35.5 114.5q33 14 43 15l10 1q8 -26 6.5 -60t3 -68t25.5 -60.5
t75 -34.5q37 -5 56.5 8t25 36t3.5 51.5t-6 57.5t-5.5 54.5t3.5 43.5q2 5 10 6.5t23 -1.5t33.5 -8t27.5 -6q0 -23 4 -62.5t6.5 -80.5t-1 -78.5t-18 -66t-42.5 -45.5t-78 -16q-56 2 -105.5 29.5t-86.5 91.5zM1051 735q16 0 30.5 -6t25 -17.5t17 -26.5t6.5 -32q0 -34 -23 -57.5
t-56 -23.5t-55 23.5t-22 57.5q0 17 5.5 32.5t16.5 26.5t25 17t30 6zM1240 681q33 0 56 -23.5t23 -58.5q0 -34 -23 -57.5t-56 -23.5q-16 0 -30 6t-25 17.5t-17 26t-6 31.5q0 35 23 58.5t55 23.5zM1193 893q33 0 56 -23.5t23 -57.5q0 -17 -6.5 -31.5t-17 -26t-25 -17.5
t-30.5 -6t-29.5 6t-24.5 17.5t-17 26t-6 31.5t6 31.5t17 26t24.5 17.5t29.5 6z" />
    <glyph glyph-name="sad" unicode="&#x635;" horiz-adv-x="1614" arabic-form="isolated" 
d="M64 210q-14 62 -4.5 105t31.5 70t50.5 37.5t55 7t45.5 -18.5t23 -42t-12.5 -66.5t-69.5 -94.5q19 -88 56 -138.5t84 -74.5t100.5 -24t105.5 16t99 44.5t81.5 64.5t54 75.5t14.5 79.5q-37 45 -46 78t-2 54.5t24.5 33t37 12.5t37 -10t24.5 -34q13 -42 21 -86t16.5 -80
t23 -60.5t51.5 -17.5q-9 79 1.5 153.5t36 141.5t65 123.5t89.5 90.5t109 42.5t125 -18.5q38 -17 71 -45.5t55.5 -65.5t34.5 -80t8 -87t-30.5 -88.5t-69 -86t-97 -77.5t-113.5 -64t-118.5 -44.5t-112 -19t-93.5 11t-73 56.5q-63 -110 -135.5 -166.5t-151.5 -76.5t-158 -4.5
t-148 63t-121 126t-75 184.5zM1057 156q144 28 225 67.5t122.5 84.5t47.5 91t-13 84.5t-56.5 65t-82.5 33t-92 -11t-82.5 -66t-55.5 -130.5t-13 -218z" />
    <glyph glyph-name="dad" unicode="&#x636;" horiz-adv-x="1614" arabic-form="isolated" 
d="M1116 965q16 0 30.5 -6.5t25 -18t17 -26t6.5 -31.5t-6.5 -32t-17 -26.5t-25 -17.5t-30.5 -6t-30 6t-25 17.5t-17 26.5t-6 32t6 31.5t17 26t25 18t30 6.5zM64 210q-14 62 -4.5 105t31.5 70t50.5 37.5t55 7t45.5 -18.5t23 -42t-12.5 -66.5t-69.5 -94.5q19 -88 56 -138.5
t84 -74.5t100.5 -24t105.5 16t99 44.5t81.5 64.5t54 75.5t14.5 79.5q-37 45 -46 78t-2 54.5t24.5 33t37 12.5t37 -10t24.5 -34q13 -42 21 -86t16.5 -80t23 -60.5t51.5 -17.5q-9 79 1.5 153.5t36 141.5t65 123.5t89.5 90.5t109 42.5t125 -18.5q38 -17 71 -45.5t55.5 -65.5
t34.5 -80t8 -87t-30.5 -88.5t-69 -86t-97 -77.5t-113.5 -64t-118.5 -44.5t-112 -19t-93.5 11t-73 56.5q-63 -110 -135.5 -166.5t-151.5 -76.5t-158 -4.5t-148 63t-121 126t-75 184.5zM1057 156q144 28 225 67.5t122.5 84.5t47.5 91t-13 84.5t-56.5 65t-82.5 33t-92 -11
t-82.5 -66t-55.5 -130.5t-13 -218z" />
    <glyph glyph-name="tta" unicode="&#x637;" horiz-adv-x="844" arabic-form="isolated" 
d="M109 134q20 0 38 0.5t48 6.5q-12 104 -2 190t42 154t86.5 113.5t227.5 74.5q-116 5 -127.5 13.5t-13.5 26.5q-11 133 -18.5 262t-10.5 257q0 11 0.5 24t4 23t10.5 16t20 5q11 0 23 5t21 7t12 1t4 -11q9 -152 25.5 -303.5t25.5 -305.5q64 0 112.5 -25.5t83.5 -67.5t54 -95
t15 -109q-5 -58 -41 -109.5t-93 -94.5t-128.5 -77t-144.5 -57t-142.5 -35t-121.5 -13q-30 0 -49.5 15.5t-19.5 45.5q0 26 17 44.5t42 18.5zM289 156q143 28 224 67.5t123 84.5t47.5 91t-13.5 84.5t-56.5 65t-82.5 33t-91.5 -11t-82.5 -66t-56 -130.5t-12 -218z" />
    <glyph glyph-name="za" unicode="&#x638;" horiz-adv-x="844" arabic-form="isolated" 
d="M109 134q20 0 38 0.5t48 6.5q-12 104 -2 190t42 154t86.5 113.5t227.5 74.5q-116 5 -127.5 13.5t-13.5 26.5q-11 133 -18.5 262t-10.5 257q0 11 0.5 24t4 23t10.5 16t20 5q11 0 23 5t21 7t12 1t4 -11q9 -152 25.5 -303.5t25.5 -305.5q64 0 112.5 -25.5t83.5 -67.5t54 -95
t15 -109q-5 -58 -41 -109.5t-93 -94.5t-128.5 -77t-144.5 -57t-142.5 -35t-121.5 -13q-30 0 -49.5 15.5t-19.5 45.5q0 26 17 44.5t42 18.5zM289 156q143 28 224 67.5t123 84.5t47.5 91t-13.5 84.5t-56.5 65t-82.5 33t-91.5 -11t-82.5 -66t-56 -130.5t-12 -218zM676 1006
q33 0 55.5 -23.5t22.5 -57.5q0 -35 -22.5 -59t-55.5 -24t-55.5 24t-22.5 59q0 34 22.5 57.5t55.5 23.5z" />
    <glyph glyph-name="ain" unicode="&#x639;" horiz-adv-x="1024" arabic-form="isolated" 
d="M563 -669q-104 5 -183 43.5t-131 98.5t-77 136.5t-21 159.5t37.5 166t108.5 166q-62 18 -104.5 41t-73.5 56.5t-50 78t-19 101.5q0 59 18.5 101.5t50 71.5t73.5 46.5t87.5 24.5t92.5 4t88.5 -13.5t74.5 -27.5t50 -37q4 -8 3.5 -28t-5.5 -37t-12 -22.5t-17 2.5
q-37 30 -83.5 41.5t-94 9.5t-91.5 -16.5t-78 -37t-54 -52.5t-13.5 -63t40 -64.5t101.5 -57.5q44 -17 84.5 -19t78 5t73.5 20t71.5 27t72 25t67.5 15q21 -44 18.5 -72t-22 -45.5t-56.5 -28.5t-82.5 -24.5t-95 -32.5t-94.5 -54t-79.5 -90.5t-52.5 -139.5q-13 -65 2 -119.5
t49 -96t83.5 -69.5t106.5 -43.5t116.5 -17t114.5 10.5t101.5 38.5t75.5 68.5q22 31 35 35t19.5 -5.5t5 -35.5t-16 -59t-43.5 -67.5t-76.5 -62.5t-115 -44t-158.5 -11z" />
    <glyph glyph-name="ghain" unicode="&#x63a;" horiz-adv-x="1024" arabic-form="isolated" 
d="M563 -669q-104 5 -183 43.5t-131 98.5t-77 136.5t-21 159.5t37.5 166t108.5 166q-62 18 -104.5 41t-73.5 56.5t-50 78t-19 101.5q0 59 18.5 101.5t50 71.5t73.5 46.5t87.5 24.5t92.5 4t88.5 -13.5t74.5 -27.5t50 -37q4 -8 3.5 -28t-5.5 -37t-12 -22.5t-17 2.5
q-37 30 -83.5 41.5t-94 9.5t-91.5 -16.5t-78 -37t-54 -52.5t-13.5 -63t40 -64.5t101.5 -57.5q44 -17 84.5 -19t78 5t73.5 20t71.5 27t72 25t67.5 15q21 -44 18.5 -72t-22 -45.5t-56.5 -28.5t-82.5 -24.5t-95 -32.5t-94.5 -54t-79.5 -90.5t-52.5 -139.5q-13 -65 2 -119.5
t49 -96t83.5 -69.5t106.5 -43.5t116.5 -17t114.5 10.5t101.5 38.5t75.5 68.5q22 31 35 35t19.5 -5.5t5 -35.5t-16 -59t-43.5 -67.5t-76.5 -62.5t-115 -44t-158.5 -11zM277 900q16 0 29.5 -6.5t23.5 -17.5t16.5 -26t6.5 -32t-6.5 -32t-16.5 -26t-23.5 -17t-29.5 -6
q-17 0 -31 6t-25 17.5t-17 26t-6 31.5q0 34 22.5 58t56.5 24z" />
    <glyph glyph-name="fa" unicode="&#x641;" horiz-adv-x="1258" arabic-form="isolated" 
d="M902 48q-52 -22 -125.5 -31.5t-157.5 -6t-171 20t-163.5 44.5t-135.5 67.5t-88 90.5q-11 20 -11 37.5t8.5 29.5t25 19t39.5 5q29 -2 76 -23.5t107.5 -50.5t131.5 -59t147 -47t155 -15t180 48q-136 37 -197.5 88.5t-83 111.5t-7.5 121.5t56.5 113t110 85.5t152.5 36
q57 2 102.5 -21.5t78.5 -65t52.5 -96t21.5 -114.5t-13.5 -120.5t-52 -113t-95.5 -93.5t-143 -61zM966 621q-82 -6 -133.5 -37.5t-73 -74.5t-12.5 -89t45.5 -80t100 -48.5t153.5 4.5q25 25 35 57.5t10.5 69t-8.5 72.5t-24.5 64.5t-39.5 46t-53 15.5zM859 1007q16 0 30 -6.5
t25 -18t17 -26t6 -31.5t-6 -31.5t-17 -25.5t-25 -17t-30 -6t-30 6t-24.5 17t-16.5 25.5t-6 31.5t6.5 32t16.5 26t24 17.5t30 6.5z" />
    <glyph glyph-name="qaf" unicode="&#x642;" horiz-adv-x="1196" arabic-form="isolated" 
d="M51 72q-1 8 10.5 16t29.5 11.5t32 2t16 -5.5q25 -57 71.5 -105.5t107.5 -85t132.5 -59.5t148.5 -27q43 -3 91 2.5t94.5 19.5t89 37t76 55t55 73.5t27.5 138.5q-37 -66 -61 -85.5t-53.5 -31.5t-63.5 -16.5t-67 -1.5q-62 6 -111.5 33t-86 68t-58.5 91.5t-26.5 102
t9.5 100.5t48 87t90 61t136 24q76 0 138.5 -35t108 -92.5t73 -132t32.5 -153.5q6 -97 -18.5 -171.5t-71.5 -129t-113 -90.5t-142 -53t-158.5 -17.5t-162 16t-152.5 47.5t-129.5 76t-94 103t-47.5 127zM791 468q-59 -1 -97 -25t-57 -60t-18 -78t20 -78.5t56.5 -62.5t90.5 -30
q64 -4 103 19.5t56 61t14 82t-23.5 82.5t-57.5 63.5t-87 25.5zM556 910q17 0 31 -6.5t25 -17.5t16.5 -26.5t5.5 -32.5q0 -34 -22 -57.5t-56 -23.5q-33 0 -55.5 23.5t-22.5 57.5q0 17 6.5 32t17 26.5t24.5 18t30 6.5zM745 856q16 0 30 -6t25 -17.5t17 -26t6 -31.5
q0 -35 -23 -59t-55 -24t-55 24t-23 59q0 17 6.5 31.5t17 26t24.5 17.5t30 6z" />
    <glyph glyph-name="kaf" unicode="&#x643;" horiz-adv-x="1029" arabic-form="isolated" 
d="M64 210q-14 62 -4.5 105t31.5 70t50.5 37.5t55 7t45.5 -18.5t23 -42t-12.5 -66.5t-69.5 -94.5q26 -113 84.5 -169.5t133.5 -66.5t154.5 23t147 100.5t113.5 168.5t52 227q3 58 -2.5 119.5t-13.5 123t-15.5 124t-8.5 123.5q-2 32 12.5 51t32 22t33.5 -10t20 -51
q42 -202 47.5 -366t-17.5 -292t-69 -221.5t-106.5 -155.5t-131.5 -93.5t-143.5 -34.5t-142.5 20.5t-130 72t-104.5 121t-64.5 166.5zM671 585q-12 5 -37.5 9.5t-53 5t-52.5 -7.5t-33 -33q-7 -25 3 -38t27 -19t38.5 -7.5t42 -2.5t37 -4t25.5 -11q23 -19 19.5 -47t-27.5 -55
q-20 -24 -51.5 -42t-69.5 -22.5t-79 8.5t-79 52q-5 5 -7 13.5t-1 17t5 13t7 4.5q11 -11 31 -21t42 -16t43.5 -7.5t38.5 2.5q49 10 49 27q4 15 -11 20.5t-31.5 8.5t-37 7t-39 12t-32.5 22t-20 37q-4 20 -1.5 41.5t11.5 41.5t25.5 37.5t38.5 28.5q28 13 60.5 19.5t64 5.5
t61.5 -9t51 -22q3 -3 1.5 -15.5t-10 -26.5t-21.5 -22.5t-28 -4.5z" />
    <glyph glyph-name="lam" unicode="&#x644;" horiz-adv-x="1029" arabic-form="isolated" 
d="M64 210q-14 62 -4.5 105t31.5 70t50.5 37.5t55 7t45.5 -18.5t23 -42t-12.5 -66.5t-69.5 -94.5q26 -113 84.5 -169.5t133.5 -66.5t154.5 23t147 100.5t113.5 168.5t52 227q3 58 -2.5 119.5t-13.5 123t-15.5 124t-8.5 123.5q-2 32 12.5 51t32 22t33.5 -10t20 -51
q42 -202 47.5 -366t-17.5 -292t-69 -221.5t-106.5 -155.5t-131.5 -93.5t-143.5 -34.5t-142.5 20.5t-130 72t-104.5 121t-64.5 166.5z" />
    <glyph glyph-name="meem" unicode="&#x645;" horiz-adv-x="720" arabic-form="isolated" 
d="M108 134q18 0 49 7.5t58.5 21t43.5 36t-4 51.5q-33 35 -43.5 74t-3 78t31 76t57.5 66t77 47t90 20q60 1 101 -26.5t65 -71.5t32 -98.5t0 -105t-29.5 -89.5t-54.5 -55q-36 -16 -86 -14t-112 22q-14 -50 -42 -78.5t-65.5 -47t-80.5 -28t-84 -9.5q-25 0 -41.5 18.5
t-16.5 42.5q0 26 16.5 44.5t41.5 18.5zM439 520q-55 -13 -86.5 -39.5t-41.5 -59.5t0 -66.5t39 -57.5t74.5 -35.5t108.5 -0.5q16 20 22.5 47t6 57t-8.5 60t-22.5 53t-38 36.5t-53.5 5.5z" />
    <glyph glyph-name="noon" unicode="&#x646;" horiz-adv-x="1020" arabic-form="isolated" 
d="M72 176q-16 46 -19 86t3.5 67.5t17.5 39.5t23 8t28.5 -30.5t29.5 -81.5q18 -76 65 -132.5t110.5 -92.5t136.5 -49.5t143 -1t130 51.5t96 108q33 62 58.5 94t40 39t22 -0.5t10.5 -29t-1.5 -54.5t-17.5 -69q-24 -68 -69 -115.5t-104 -76.5t-128 -40.5t-139.5 -6t-139 27
t-127 58.5t-102.5 87t-67 113zM524 470q16 0 29.5 -6t23.5 -17t16.5 -26.5t6.5 -32.5q0 -16 -6.5 -31t-16.5 -26t-23.5 -17t-29.5 -6q-34 0 -56.5 23.5t-22.5 56.5q0 35 22.5 58.5t56.5 23.5z" />
    <glyph glyph-name="haa" unicode="&#x647;" horiz-adv-x="560" arabic-form="isolated" 
d="M188 512q-29 12 -46.5 16.5t-33 10t-24.5 11.5t-9 13q-1 7 2.5 24t11.5 34.5t16 28t15 9.5q71 -14 139 -38.5t119 -50.5q48 -24 77.5 -61t42 -80.5t10.5 -91.5t-16.5 -94.5t-39.5 -88.5t-57 -73t-69.5 -48.5t-77.5 -16.5q-41 1 -78 23.5t-64.5 60.5t-41.5 87.5t-8 103
t34 108t98 113.5zM247 146q63 2 97.5 35.5t43.5 77t-5.5 85t-50.5 60.5q-46 24 -82 13.5t-58.5 -39.5t-31.5 -69t-3.5 -75.5t27.5 -62t63 -25.5z" />
    <glyph glyph-name="waw" unicode="&#x648;" horiz-adv-x="694" arabic-form="isolated" 
d="M70 -130q68 34 134.5 70t143.5 105q-134 -4 -196.5 31t-90.5 91t-22.5 127t38.5 140.5t92 130t137 94.5q91 42 156.5 33.5t106.5 -53t58 -118t8 -161t-44 -180.5t-97 -176q-71 -95 -146.5 -148.5t-142.5 -76.5t-118 -20.5t-71.5 18t-11 40t65.5 53.5zM213 438
q-28 -36 -43.5 -75t-15.5 -76.5t17 -68.5t52.5 -50t90 -21.5t133.5 15.5q49 70 67 137t13 123.5t-32 95.5t-71 46.5t-98 -21.5t-113 -105z" />
    <glyph glyph-name="ya" unicode="&#x64a;" horiz-adv-x="1119" arabic-form="isolated" 
d="M573 96q52 -12 102.5 -28.5t90.5 -43t64 -66.5t25 -99q1 -50 -13.5 -89t-40.5 -67t-63 -46t-81 -25q-52 -10 -111 -4.5t-118.5 25.5t-117.5 54.5t-106.5 83.5t-86.5 112t-57 141q-5 17 -7.5 37t0 37t11.5 30.5t26 20.5q12 4 26 2.5t26 -8t20.5 -16.5t10.5 -23
q8 -93 49.5 -162t99 -115t123.5 -69t126 -24t106 21t61 67q11 32 -2.5 51t-39.5 30t-61.5 19t-74.5 18t-79 25.5t-75 41t-62.5 64.5t-41.5 96q-21 84 0.5 157.5t72.5 133t125.5 102.5t157.5 64.5t169.5 20t161.5 -29.5q31 -10 48 -26t24.5 -34t4.5 -35.5t-12 -30.5
q-33 -43 -58.5 -53.5t-48.5 -3.5q-133 34 -228.5 39.5t-161 -9t-103 -46.5t-50.5 -72t-5 -83.5t32 -81t61 -65.5t81 -38zM389 -505q16 0 30 -6t24.5 -17.5t17 -26.5t6.5 -32t-6.5 -31.5t-17 -25.5t-24.5 -17t-30 -6t-30 6t-25 17t-17 25.5t-6 31.5t6 32t17 26.5t25 17.5
t30 6zM579 -559q16 0 29.5 -6t23.5 -17t16.5 -26.5t6.5 -32.5t-6.5 -31.5t-16.5 -25.5t-23.5 -17t-29.5 -6q-33 0 -56 23t-23 57q0 35 23 58.5t56 23.5z" />
    <glyph glyph-name="fathatanA" unicode="&#xfe70;" arabic-form="isolated" 
d="M204 179q-37 -36 -78 -64.5t-85.5 -46t-93 -22.5t-99.5 6q-17 4 -22.5 15.5t-2.5 23.5t13.5 19.5t26.5 3.5q43 -8 83 -2.5t77 21t70.5 39t62.5 51.5q12 12 25 10.5t21.5 -10t10.5 -21t-9 -23.5zM145 314q-37 -36 -78 -64t-86 -45t-93 -21.5t-100 6.5q-16 3 -21.5 14.5
t-2.5 23t14 19.5t27 5q43 -9 83 -4t76.5 20.5t70.5 39.5t64 53q12 11 24 9.5t21 -10t10.5 -22t-9.5 -24.5z" />
    <glyph glyph-name="kasratanB" unicode="&#xfe74;" arabic-form="isolated" 
d="M-225 -165q37 36 78 64t86 45t93.5 21.5t100.5 -6.5q15 -4 20.5 -15t2.5 -23t-13.5 -20t-27.5 -5q-42 9 -82 4t-77.5 -20.5t-70.5 -39.5t-63 -54q-11 -10 -24 -8.5t-21.5 11t-10.5 22.5t9 24zM-166 -303q37 35 78 63.5t86 46t93 22.5t99 -6q16 -4 22 -15.5t3 -24t-14 -20
t-27 -3.5q-43 8 -83 3t-76.5 -20.5t-70 -39t-63.5 -51.5q-12 -13 -24.5 -11.5t-21.5 10.5t-10.5 22t9.5 24z" />
    <glyph glyph-name="fathaA" unicode="&#xfe76;" arabic-form="isolated" 
d="M174 179q-38 -36 -79 -64.5t-85.5 -46t-93.5 -22.5t-102 6q-15 3 -19.5 15t-1.5 24t13 19.5t25 3.5q42 -8 82.5 -2.5t78 21t71.5 39t64 51.5q10 12 23 10.5t22 -10t11 -21t-9 -23.5z" />
    <glyph glyph-name="dammaA" unicode="&#xfe78;" arabic-form="isolated" 
d="M1 114q-42 25 -55.5 45.5t-13.5 51.5q-1 35 16 64t42.5 43.5t53 10.5t50.5 -34q26 -35 31 -65t-5 -55t-33 -46.5t-54 -37.5t-66 -27t-67 -16q-29 -5 -47.5 -4.5t-29 3t-15.5 7t-7 7.5q-9 15 -1.5 20.5t34 9t65 6t102.5 17.5zM59 175q22 21 20 44t-18 36.5t-38.5 12.5
t-42.5 -27q-9 -20 -4.5 -38.5t17.5 -31t31 -13t35 16.5z" />
    <glyph glyph-name="kasraB" unicode="&#xfe7a;" arabic-form="isolated" 
d="M-196 -165q37 36 78 64t86 45t93.5 21.5t100.5 -6.5q15 -4 20.5 -15t2.5 -23t-14 -20t-27 -5q-43 9 -83 4t-76.5 -20.5t-70 -39.5t-62.5 -54q-12 -10 -25 -8.5t-22 11t-10.5 22.5t9.5 24z" />
    <glyph glyph-name="shaddaA" unicode="&#xfe7c;" arabic-form="isolated" 
d="M69 296q35 -28 50.5 -59t16.5 -59t-10 -50.5t-29 -34.5t-41 -11t-57 28q-25 -47 -61.5 -61t-74 -3.5t-66 46.5t-30.5 100q0 14 9.5 24t20 11t19 -6t8.5 -29q0 -12 5 -27t14 -28t24 -21.5t34 -4.5q20 4 24.5 18t2.5 28.5t-7.5 28.5t-8.5 26q-10 29 -4 43.5t17 15.5
q15 3 22.5 -4.5t13 -22.5t9.5 -34.5t12 -36.5t24.5 -25.5t43.5 3.5q11 5 19.5 14t8.5 22t-11 27.5t-35 32.5q-14 9 -16.5 19.5t5.5 22.5q9 13 23 14.5t25 -7.5z" />
    <glyph glyph-name="sukunA" unicode="&#xfe7e;" arabic-form="isolated" 
d="M-50 244q29 15 53 10t41 -22t26.5 -43t8 -53t-13.5 -50t-38 -35q-30 -12 -53.5 -6.5t-40 22t-25.5 42t-7.5 51.5t13.5 49t36 35zM43 149q4 26 -13 41t-38 16t-40 -12t-20 -42q-1 -24 15 -39.5t36 -19t39 10.5t21 45z" />
    <glyph glyph-name="alefmadF" unicode="&#x622;" horiz-adv-x="422" arabic-form="final" 
d="M310 1001q-43 2 -87.5 10.5t-88 14t-86 3t-81.5 -23.5q-7 -4 -17.5 0.5t-20.5 17t-14.5 29.5t0.5 35q10 35 33.5 49t57.5 15.5t78 -6t91.5 -15t96.5 -10.5t94 9l3 -6.5t3 -21.5t-4 -34t-11.5 -33.5t-19.5 -24t-27 -8.5zM102 776q0 57 14.5 81.5t30 23.5t31.5 -25t18 -72
q4 -82 10 -143.5t13.5 -118.5t17.5 -118t21 -142q4 -28 12.5 -52t27 -41t48.5 -26t76 -9q24 0 42 -18t18 -44q0 -25 -17.5 -43.5t-42.5 -18.5q-89 0 -148.5 28.5t-89.5 75.5q-14 23 -26 71t-20.5 110t-15 132.5t-11 136.5t-7 121.5t-2.5 90.5z" />
    <glyph glyph-name="alefhamzaAF" unicode="&#x623;" horiz-adv-x="439" arabic-form="final" 
d="M283 1254q-13 4 -38 9t-53 5.5t-53 -7.5t-33 -33q-7 -25 3 -38.5t27 -19.5t38.5 -7t42.5 -2.5t38 -4.5t26 -11q23 -19 19.5 -47t-26.5 -56q-21 -24 -53 -42t-70.5 -22.5t-79.5 9t-79 52.5q-5 5 -7 14t-0.5 17.5t5.5 13t6 4.5q11 -11 31.5 -21.5t42.5 -17t43.5 -7.5
t38.5 3q24 5 36 11t15 15q2 17 -12.5 22t-31.5 8t-37.5 7t-39 12t-32.5 22t-19 37q-5 21 -2.5 42.5t11 42t25 38t38.5 28.5q28 13 60.5 19t65 5t62.5 -9t51 -22q3 -3 1.5 -15.5t-10.5 -27t-22 -23t-28 -3.5zM119 776q0 57 14.5 81.5t30 23.5t31.5 -25t18 -72q3 -82 9 -143.5
t14 -119t18 -118t21 -141.5q4 -28 12.5 -52t27 -41t48.5 -26t76 -9q25 0 42 -18t17 -44q0 -25 -17.5 -43.5t-41.5 -18.5q-89 0 -148.5 28.5t-89.5 75.5q-14 23 -25.5 71t-20.5 110t-15.5 132.5t-11 136.5t-7 121.5t-2.5 90.5z" />
    <glyph glyph-name="wawhamzaF" unicode="&#x624;" horiz-adv-x="748" arabic-form="final" 
d="M77 -131q68 35 134.5 71t143.5 105q-134 -4 -197 31t-91 91.5t-22.5 127.5t39 141t92.5 131t138 95q79 37 139 34.5t101 -33t64.5 -85.5t28 -125t-11 -150t-56.5 -173q59 -1 99.5 1.5t69.5 2.5q25 0 42 -18t17 -44q0 -25 -17 -43.5t-42 -18.5h-36.5h-56t-67.5 1t-77 3
q-74 -101 -150.5 -155.5t-144.5 -78.5t-120.5 -22t-73.5 17.5t-12 40t67 53.5zM221 440q-42 -54 -57.5 -111t8 -102.5t88.5 -68t183 -9.5q49 71 68 139t15 125.5t-29.5 99t-67.5 51.5t-95.5 -18.5t-112.5 -105.5zM549 1097q-12 4 -38 9t-53 5.5t-52.5 -7.5t-33.5 -33
q-7 -25 3 -38.5t27 -19.5t38.5 -7t42.5 -2.5t38 -4.5t26 -11q22 -19 18.5 -47t-27.5 -57q-20 -24 -52.5 -41.5t-70.5 -22t-79 9t-79 52.5q-5 5 -7 14t-0.5 17.5t5 13t5.5 3.5q12 -11 32.5 -21.5t42.5 -16.5t43.5 -7.5t38.5 1.5q25 7 36.5 12.5t13.5 15.5q4 17 -11.5 22
t-32 8t-37 6.5t-38.5 11.5t-32 22t-20 38q-5 21 -2.5 42.5t11.5 42t25.5 38t38.5 28.5q28 13 60.5 19t65 5t62 -9t50.5 -22q3 -3 1.5 -15.5t-9.5 -27t-21.5 -23t-28.5 -3.5z" />
    <glyph glyph-name="alefhamzaBF" unicode="&#x625;" horiz-adv-x="363" arabic-form="final" 
d="M303 -273q-12 3 -37.5 7.5t-53.5 5t-53 -7.5t-33 -33q-7 -25 2.5 -38t27 -19t39 -7.5t42.5 -3t38 -4.5t27 -11q22 -17 18 -45.5t-27 -56.5q-21 -24 -53 -42t-70 -22.5t-79 9t-78 52.5q-6 5 -8 14t-0.5 17.5t5 12.5t5.5 4q12 -11 32.5 -21.5t42.5 -16.5t43.5 -7.5
t38.5 2.5q23 5 35.5 11t14.5 16q4 16 -11.5 22t-33 8.5t-37.5 6.5t-38 12t-32.5 22t-19.5 38q-5 20 -2 41.5t12 41.5t25.5 37.5t38.5 28.5q27 13 60 19.5t65 5.5t61.5 -9t51.5 -23q3 -2 1.5 -14.5t-10 -26.5t-21.5 -22.5t-29 -3.5zM43 943q0 57 14 81t29.5 23t32 -25.5
t18.5 -72.5q4 -82 10 -169t14 -175.5t18 -175t21 -167.5q3 -28 11.5 -52t27.5 -41t48.5 -26t75.5 -9q25 0 42.5 -18t17.5 -44q0 -25 -17.5 -43.5t-42.5 -18.5q-89 0 -148.5 28.5t-89.5 75.5q-10 17 -19 55.5t-17 92t-14.5 118t-11.5 131.5t-8.5 133t-6 124t-4 103.5
t-1.5 71.5z" />
    <glyph glyph-name="yahamzaAF" unicode="&#x626;" horiz-adv-x="1054" arabic-form="final" 
d="M936 -1q-6 -7 -6.5 -15t3.5 -17q17 -72 6 -127t-41 -93.5t-77 -63t-104.5 -36t-122 -9.5t-129.5 16q-112 23 -191.5 68.5t-128.5 103t-69.5 124t-13.5 133.5t40 131t90.5 115t139 87t186.5 47q34 4 70.5 4.5t73.5 -2.5l1 -4.5t-2 -16.5t-9 -26.5t-14 -27.5t-14.5 -20
t-9.5 -7q-107 -3 -194 -37.5t-146 -87t-83.5 -118t-6 -128.5t83.5 -116t185 -83q24 -6 60 -10.5t77 -5.5t82.5 4.5t76 19.5t57 39.5t23.5 65.5q1 30 -20.5 52t-53.5 38t-70 27t-73 18.5t-64 12t-40 6.5q-41 8 -64 21.5t-32.5 28.5t-9 28.5t7 24t17 16.5t22.5 3
q79 -16 133.5 -26t97.5 -15t79 -7t76.5 -2t92.5 1t126 1q26 0 41.5 -17t17.5 -39t-10 -42t-37 -25q-8 -2 -27.5 -2.5t-40 -1.5t-38 -2t-24.5 -6zM623 874q-13 4 -38.5 8.5t-53.5 4.5t-53.5 -8t-33.5 -32q-11 -37 13 -49.5t56 -15t62.5 -4.5t45.5 -14q22 -18 18.5 -46.5
t-27.5 -55.5q-21 -25 -53 -43t-70 -22.5t-79 9.5t-79 53q-6 5 -8 13.5t-0.5 17t5 13t6.5 3.5q12 -11 32 -21t42 -16t43 -7.5t39 1.5q24 5 36.5 11t14.5 16q2 16 -12 22t-31.5 9t-38 6.5t-38.5 11.5t-32 22t-19 38q-5 20 -2.5 41.5t11.5 41.5t25.5 38t38.5 29
q27 13 59.5 19.5t65 5t62.5 -9.5t51 -23q3 -2 1.5 -14t-10 -26.5t-21.5 -23t-28 -3.5z" />
    <glyph glyph-name="yahamzaAI" unicode="&#x626;" horiz-adv-x="364" arabic-form="initial" 
d="M0 134q12 0 31 3.5t39 10.5t39 16.5t32 22.5t15.5 30.5t-12.5 36.5q-36 44 -45 77t-2.5 54.5t24.5 33t38 12t38 -10.5t25 -34q7 -27 17.5 -46.5t18.5 -38.5t13.5 -40.5t5.5 -51.5q-1 -51 -27 -88.5t-66.5 -62t-89 -36.5t-94.5 -12q-26 0 -43 18.5t-17 43.5q0 26 17.5 44
t42.5 18zM237 843q-12 3 -37.5 8t-53.5 5t-53 -8t-33 -33q-7 -25 3 -38t27 -19t38.5 -7t42.5 -2t37.5 -4t25.5 -11q23 -19 20 -47.5t-27 -55.5q-21 -25 -53 -43t-70 -22.5t-79 9t-79 52.5q-5 5 -7 14.5t-0.5 18t5 12.5t4.5 3q13 -11 33 -21.5t42 -16.5t43.5 -7.5t38.5 2.5
q24 5 36.5 11t14.5 16q2 16 -12 22t-32 9t-38 6.5t-38 11.5t-32 22t-19 38q-6 20 -3.5 41.5t11.5 41.5t25.5 37.5t38.5 28.5q28 14 60.5 20.5t65 5t62 -9.5t50.5 -22q3 -2 2 -14.5t-10 -27t-22 -23t-28 -3.5z" />
    <glyph glyph-name="yahamzaAM" unicode="&#x626;" horiz-adv-x="584" arabic-form="medial" 
d="M584 10q-38 0 -79.5 13.5t-82 36t-74.5 51t-69 72.5q-18 -58 -47.5 -87t-68 -48t-81.5 -28.5t-82 -9.5q-25 0 -41.5 18t-16.5 44t16.5 44t41.5 18q63 -1 99 16t51 47t12.5 67.5t-13 76t-24 76.5t-22.5 70q-9 33 -6 52t11.5 27.5t22.5 9.5t29.5 -5.5t29.5 -20.5t21 -33
q17 -40 36.5 -83.5t42.5 -86t51.5 -81.5t65 -68.5t80.5 -46.5t97 -17q25 0 42.5 -18t17.5 -44q0 -25 -17.5 -43.5t-42.5 -18.5zM232 990q-13 4 -38 9t-53 5.5t-53 -7.5t-33 -33q-7 -25 3 -38.5t27 -19.5t38.5 -7t42 -2.5t37.5 -4.5t26 -11q23 -18 20 -46.5t-27 -54.5
q-21 -25 -53 -43.5t-70 -23t-79 9.5t-79 53q-5 5 -7 13.5t-0.5 17t5.5 13t5 4.5q11 -11 31.5 -21.5t42.5 -17t43.5 -7.5t38.5 3q24 5 36 11t16 15q2 18 -12.5 23t-32 7.5t-37.5 6.5t-38.5 12t-32.5 22.5t-19 37.5q-5 20 -2.5 41.5t11.5 42t25 38t38 28.5q28 13 60.5 19.5
t65 5.5t61.5 -9t51 -23q3 -3 2 -15.5t-10 -27t-22 -23t-28 -3.5z" />
    <glyph glyph-name="alefF" unicode="&#x627;" horiz-adv-x="381" arabic-form="final" 
d="M61 943q0 57 14 81t29.5 23t32 -25.5t18.5 -72.5q4 -82 10 -169t14 -175.5t18 -175t21 -167.5q3 -28 11.5 -52t27.5 -41t49 -26t75 -9q25 0 42.5 -18t17.5 -44q0 -25 -17 -43.5t-43 -18.5q-89 0 -148.5 28.5t-88.5 75.5q-11 17 -20 55.5t-17 92t-14.5 118t-11.5 131.5
t-8.5 133t-6 124t-4 103.5t-1.5 71.5z" />
    <glyph glyph-name="baF" unicode="&#x628;" horiz-adv-x="1195" arabic-form="final" 
d="M81 177q-16 46 -19 86t3.5 67.5t17.5 39.5t23.5 8t29 -30.5t29.5 -81.5q19 -76 66 -133t110.5 -93.5t137 -49.5t143.5 -1.5t130 51.5t97 109q34 65 60 97t41 38t22 -3.5t9 -35.5q14 -23 31 -43t43 -35t60.5 -24t79.5 -9q25 0 42 -18t17 -44q0 -25 -17 -43.5t-42 -18.5
q-27 0 -56.5 7.5t-60 20.5t-59 30t-63.5 46q-33 -74 -81 -117t-107 -69t-127 -35t-137 -2t-135.5 29.5t-122.5 59.5t-99 86.5t-66 110.5zM516 -233q16 0 30 -6t24 -17t16.5 -26t6.5 -32q0 -35 -22.5 -59t-54.5 -24q-34 0 -56.5 24t-22.5 59q0 34 22.5 57.5t56.5 23.5z" />
    <glyph glyph-name="baI" unicode="&#x628;" horiz-adv-x="338" arabic-form="initial" 
d="M0 134q12 0 31.5 3.5t39 10.5t38.5 16.5t32 22.5t16 30.5t-13 36.5q-36 44 -45 77t-2 54.5t24.5 33t37.5 12t38.5 -10.5t24.5 -34q8 -27 18 -46.5t18 -38.5t13.5 -40.5t5.5 -51.5q-1 -51 -27 -88.5t-66.5 -62t-89 -36.5t-94.5 -12q-26 0 -43 18.5t-17 43.5q0 26 17.5 44
t42.5 18zM169 -143q33 0 56 -23.5t23 -57.5q0 -35 -23 -59t-56 -24q-32 0 -54.5 24t-22.5 59q0 17 6.5 32t16.5 26t24 17t30 6z" />
    <glyph glyph-name="baM" unicode="&#x628;" horiz-adv-x="584" arabic-form="medial" 
d="M584 10q-37 0 -79 13.5t-82 36t-74.5 51t-69.5 72.5q-18 -58 -47.5 -87t-67.5 -48t-81.5 -28.5t-82.5 -9.5q-25 0 -41.5 18t-16.5 44t16.5 44t41.5 18q63 -1 99 16t51 47t12.5 67.5t-12.5 76t-23.5 76.5t-22.5 70q-10 33 -7 52t11.5 27.5t22.5 9.5t29.5 -5.5t29.5 -20.5
t22 -33q16 -40 35.5 -83.5t43 -86t52 -81.5t64.5 -68.5t80 -46.5t97 -17q25 0 42.5 -18t17.5 -44q0 -25 -17.5 -43.5t-42.5 -18.5zM355 -143q33 0 56 -23.5t23 -57.5q0 -35 -23 -59t-56 -24q-32 0 -54.5 24t-22.5 59q0 17 6.5 32t16.5 26t24 17t30 6z" />
    <glyph glyph-name="tamarF" unicode="&#x629;" horiz-adv-x="850" arabic-form="final" 
d="M850 10q-46 0 -87 7.5t-73.5 24.5t-54.5 45.5t-39 107.5q-32 -98 -78.5 -134.5t-105.5 -48t-122.5 1.5t-115.5 48.5t-84 92.5t-29 134q3 71 31 129.5t72.5 100t101 64.5t114.5 23q72 0 121.5 -13t82 -34.5t51 -50.5t28 -62t12 -68t3.5 -69t3 -65t9 -54q10 -27 29 -39
t42 -15.5t46.5 -2.5t42.5 1q29 0 44 -19t15 -43t-15 -43t-44 -19zM581 309q-2 84 -35 126t-80.5 56t-101 4t-99.5 -38.5t-76.5 -74t-30.5 -102.5q0 -33 21.5 -63t53.5 -52t69.5 -33.5t72.5 -6t60 32t29 77.5q2 22 13.5 37t27 24t33.5 12t43 1zM282 919q33 0 55 -23.5
t22 -57.5q0 -35 -22 -59t-55 -24q-34 0 -56.5 24t-22.5 59q0 34 22.5 57.5t56.5 23.5zM471 865q33 0 56 -24t23 -59q0 -34 -23 -57.5t-56 -23.5q-16 0 -30 6t-24.5 17t-16.5 26t-6 32q0 35 22.5 59t54.5 24z" />
    <glyph glyph-name="taF" unicode="&#x62a;" horiz-adv-x="1195" arabic-form="final" 
d="M81 177q-16 46 -19 86t3.5 67.5t17.5 39.5t23.5 8t29 -30.5t29.5 -81.5q19 -76 66 -133t110.5 -93.5t137 -49.5t143.5 -1.5t130 51.5t97 109q34 65 60 97t41 38t22 -3.5t9 -35.5q14 -23 31 -43t43 -35t60.5 -24t79.5 -9q25 0 42 -18t17 -44q0 -25 -17 -43.5t-42 -18.5
q-27 0 -56.5 7.5t-60 20.5t-59 30t-63.5 46q-33 -74 -81 -117t-107 -69t-127 -35t-137 -2t-135.5 29.5t-122.5 59.5t-99 86.5t-66 110.5zM433 472q32 0 54.5 -23.5t22.5 -58.5q0 -17 -6.5 -32t-16.5 -26t-24 -17t-30 -6q-33 0 -56 23.5t-23 57.5q0 35 23 58.5t56 23.5z
M622 418q34 0 56.5 -23.5t22.5 -58.5q0 -34 -22.5 -57.5t-56.5 -23.5q-33 0 -55 23.5t-22 57.5q0 35 22 58.5t55 23.5z" />
    <glyph glyph-name="taI" unicode="&#x62a;" horiz-adv-x="341" arabic-form="initial" 
d="M0 134q12 0 31.5 3.5t39 10.5t38.5 16.5t32 22.5t16 30.5t-13 36.5q-36 44 -45 77t-2 54.5t24.5 33t37.5 12t38.5 -10.5t24.5 -34q8 -27 18 -46.5t18 -38.5t13.5 -40.5t5.5 -51.5q-1 -51 -27 -88.5t-66.5 -62t-89 -36.5t-94.5 -12q-26 0 -43 18.5t-17 43.5q0 26 17.5 44
t42.5 18zM53 730q33 0 56 -23.5t23 -58.5q0 -34 -23 -57.5t-56 -23.5q-16 0 -30 6t-25 17.5t-17 26t-6 31.5q0 35 23 58.5t55 23.5zM244 676q16 0 30 -6t24 -17t16.5 -26t6.5 -32t-6.5 -32.5t-16.5 -26.5t-24 -17t-30 -6q-17 0 -31 6t-24.5 17.5t-17 26.5t-6.5 32t6 31.5
t17 26t25 17.5t31 6z" />
    <glyph glyph-name="taM" unicode="&#x62a;" horiz-adv-x="584" arabic-form="medial" 
d="M584 10q-37 0 -79 13.5t-82 36t-74.5 51t-69.5 72.5q-18 -58 -47.5 -87t-67.5 -48t-81.5 -28.5t-82.5 -9.5q-25 0 -41.5 18t-16.5 44t16.5 44t41.5 18q63 -1 99 16t51 47t12.5 67.5t-12.5 76t-23.5 76.5t-22.5 70q-10 33 -7 52t11.5 27.5t22.5 9.5t29.5 -5.5t29.5 -20.5
t22 -33q16 -40 35.5 -83.5t43 -86t52 -81.5t64.5 -68.5t80 -46.5t97 -17q25 0 42.5 -18t17.5 -44q0 -25 -17.5 -43.5t-42.5 -18.5zM-12 871q16 0 30.5 -6.5t25 -18t17 -26.5t6.5 -32q0 -34 -23 -57.5t-56 -23.5q-16 0 -30 6t-25 17.5t-17 26t-6 31.5t6.5 32t17 26.5t24.5 18
t30 6.5zM179 817q32 0 54.5 -24t22.5 -59q0 -17 -6.5 -32t-16.5 -26t-24 -17t-30 -6q-33 0 -56 23.5t-23 57.5q0 35 23 59t56 24z" />
    <glyph glyph-name="thaF" unicode="&#x62b;" horiz-adv-x="1195" arabic-form="final" 
d="M81 177q-16 46 -19 86t3.5 67.5t17.5 39.5t23.5 8t29 -30.5t29.5 -81.5q19 -76 66 -133t110.5 -93.5t137 -49.5t143.5 -1.5t130 51.5t97 109q34 65 60 97t41 38t22 -3.5t9 -35.5q14 -23 31 -43t43 -35t60.5 -24t79.5 -9q25 0 42 -18t17 -44q0 -25 -17 -43.5t-42 -18.5
q-27 0 -56.5 7.5t-60 20.5t-59 30t-63.5 46q-33 -74 -81 -117t-107 -69t-127 -35t-137 -2t-135.5 29.5t-122.5 59.5t-99 86.5t-66 110.5zM433 472q32 0 54.5 -23.5t22.5 -58.5q0 -17 -6.5 -32t-16.5 -26t-24 -17t-30 -6q-33 0 -56 23.5t-23 57.5q0 35 23 58.5t56 23.5z
M622 418q34 0 56.5 -23.5t22.5 -58.5q0 -34 -22.5 -57.5t-56.5 -23.5q-33 0 -55 23.5t-22 57.5q0 35 22 58.5t55 23.5zM576 631q33 0 55.5 -23.5t22.5 -57.5q0 -17 -6.5 -32t-17 -26.5t-24.5 -18t-30 -6.5t-30 6.5t-25 18t-17 26.5t-6 32t6 31.5t17 26t25 17.5t30 6z" />
    <glyph glyph-name="thaI" unicode="&#x62b;" horiz-adv-x="341" arabic-form="initial" 
d="M0 134q12 0 31.5 3.5t39 10.5t38.5 16.5t32 22.5t16 30.5t-13 36.5q-36 44 -45 77t-2 54.5t24.5 33t37.5 12t38.5 -10.5t24.5 -34q8 -27 18 -46.5t18 -38.5t13.5 -40.5t5.5 -51.5q-1 -51 -27 -88.5t-66.5 -62t-89 -36.5t-94.5 -12q-26 0 -43 18.5t-17 43.5q0 26 17.5 44
t42.5 18zM53 730q33 0 56 -23.5t23 -58.5q0 -34 -23 -57.5t-56 -23.5q-16 0 -30 6t-25 17.5t-17 26t-6 31.5q0 35 23 58.5t55 23.5zM244 676q16 0 30 -6t24 -17t16.5 -26t6.5 -32t-6.5 -32.5t-16.5 -26.5t-24 -17t-30 -6q-17 0 -31 6t-24.5 17.5t-17 26.5t-6.5 32t6 31.5
t17 26t25 17.5t31 6zM197 890q33 0 55 -24t22 -58q0 -17 -6 -32.5t-16.5 -26.5t-24.5 -17t-30 -6t-30.5 6t-25 17.5t-17 26.5t-6.5 32t6 31.5t17 26t25.5 18t30.5 6.5z" />
    <glyph glyph-name="thaM" unicode="&#x62b;" horiz-adv-x="584" arabic-form="medial" 
d="M584 10q-37 0 -79 13.5t-82 36t-74.5 51t-69.5 72.5q-18 -58 -47.5 -87t-67.5 -48t-81.5 -28.5t-82.5 -9.5q-25 0 -41.5 18t-16.5 44t16.5 44t41.5 18q63 -1 99 16t51 47t12.5 67.5t-12.5 76t-23.5 76.5t-22.5 70q-10 33 -7 52t11.5 27.5t22.5 9.5t29.5 -5.5t29.5 -20.5
t22 -33q16 -40 35.5 -83.5t43 -86t52 -81.5t64.5 -68.5t80 -46.5t97 -17q25 0 42.5 -18t17.5 -44q0 -25 -17.5 -43.5t-42.5 -18.5zM-12 871q16 0 30.5 -6.5t25 -18t17 -26.5t6.5 -32q0 -34 -23 -57.5t-56 -23.5q-16 0 -30 6t-25 17.5t-17 26t-6 31.5t6.5 32t17 26.5t24.5 18
t30 6.5zM179 817q32 0 54.5 -24t22.5 -59q0 -17 -6.5 -32t-16.5 -26t-24 -17t-30 -6q-33 0 -56 23.5t-23 57.5q0 35 23 59t56 24zM132 1029q33 0 55.5 -23.5t22.5 -57.5t-22.5 -58t-55.5 -24q-16 0 -30.5 6.5t-25.5 18t-17 26t-6 31.5q0 34 23 57.5t56 23.5z" />
    <glyph glyph-name="jeemF" unicode="&#x62c;" horiz-adv-x="963" arabic-form="final" 
d="M60 401q3 52 29.5 84t66.5 47t87.5 15.5t90.5 -10.5q58 -15 122.5 -37.5t130.5 -48.5t132 -52.5t128 -47.5q15 -6 30 -10.5t26 -11t18 -16t8 -26.5q2 -29 -3 -42t-14 -18.5t-24 -6t-33 -0.5q-17 -1 -34 -2.5t-62 -6.5q25 -17 35.5 -27t32.5 -21t55.5 -20t80.5 -9
q25 0 42.5 -18t17.5 -44t-16.5 -44t-40.5 -18q-100 -1 -180.5 45.5t-137.5 127.5q-142 -31 -238 -87t-151.5 -127t-69.5 -149t15 -148.5t101 -125t188 -79.5q51 -11 103.5 -9t99.5 17t86.5 41t65.5 63q21 30 34 34t19.5 -4.5t7.5 -32t-9.5 -54.5t-34 -64.5t-62.5 -62
t-95 -47t-132 -20.5q-118 -2 -208.5 29.5t-152 86t-93.5 127t-33.5 153t28 164.5t93 159.5t160.5 139t257 111.5q-85 34 -145.5 58.5t-115 41.5t-100.5 21.5t-81 -12.5q-4 -28 -19.5 -44t-39.5 -18q-12 -2 -23.5 3t-21 13t-15.5 18.5t-6 21.5zM530 -108q33 0 56 -24t23 -59
q0 -34 -23 -57.5t-56 -23.5t-56 23.5t-23 57.5q0 35 23 59t56 24z" />
    <glyph glyph-name="jeemI" unicode="&#x62c;" horiz-adv-x="1017" arabic-form="initial" 
d="M66 401q3 52 30 84t67 47t87 15.5t89 -10.5q58 -15 123 -37.5t131 -48.5t132 -52.5t127 -47.5q15 -6 30 -10.5t26.5 -11t18.5 -16t9 -26.5q1 -28 -4 -41.5t-14.5 -19t-24 -6t-33.5 -0.5q-62 -2 -132 -18t-144 -39.5t-150 -50.5t-150.5 -49.5t-146.5 -37.5t-136 -15
q-24 0 -41.5 18t-17.5 44t17 44t41 18q95 5 169 18.5t142 34.5t137.5 47t181.5 64q-83 34 -143.5 58.5t-114.5 41.5t-100.5 21.5t-82.5 -13.5q-2 -27 -18 -43t-40 -18q-12 -2 -23.5 3t-20.5 12.5t-15 18.5t-6 22zM449 -10q33 0 56 -23.5t23 -57.5q0 -17 -6 -31.5t-17 -26
t-25.5 -17.5t-30.5 -6t-30 6t-25 17.5t-17 26t-6 31.5t6 31.5t17 26t25 17.5t30 6z" />
    <glyph glyph-name="jeemM" unicode="&#x62c;" horiz-adv-x="970" arabic-form="medial" 
d="M65 401q3 52 30.5 84t67.5 47t87 15.5t89 -10.5q58 -15 123 -37.5t131 -48.5t132 -52.5t127 -47.5q15 -6 30 -10.5t26.5 -11t18.5 -16t9 -26.5q1 -28 -4 -41.5t-14.5 -19t-24 -6t-33.5 -0.5q-18 -1 -34.5 -2.5t-60.5 -6.5q25 -17 35.5 -27t32.5 -21t55.5 -20t81.5 -9
q25 0 42 -18t17 -44t-17 -44t-41 -18q-99 -1 -180 45.5t-138 128.5q-80 -23 -162 -53t-167 -56.5t-167 -45.5t-156 -19q-25 0 -41.5 18t-16.5 44t16.5 44t40.5 18q95 5 169 18.5t142.5 34.5t138.5 47t183 64q-85 34 -145.5 58.5t-115 41.5t-100.5 21.5t-82 -13.5
q-2 -27 -18.5 -43t-39.5 -18q-12 -2 -24 3t-21.5 13t-15.5 18.5t-6 21.5zM449 -10q33 0 56 -23.5t23 -57.5q0 -17 -6 -31.5t-17 -26t-25.5 -17.5t-30.5 -6t-30 6t-25 17.5t-17 26t-6 31.5t6 31.5t17 26t25 17.5t30 6z" />
    <glyph glyph-name="haF" unicode="&#x62d;" horiz-adv-x="963" arabic-form="final" 
d="M60 401q3 52 29.5 84t66.5 47t87.5 15.5t90.5 -10.5q58 -15 122.5 -37.5t130.5 -48.5t132 -52.5t128 -47.5q15 -6 30 -10.5t26 -11t18 -16t8 -26.5q2 -29 -3 -42t-14 -18.5t-24 -6t-33 -0.5q-17 -1 -34 -2.5t-62 -6.5q25 -17 35.5 -27t32.5 -21t55.5 -20t80.5 -9
q25 0 42.5 -18t17.5 -44t-16.5 -44t-40.5 -18q-100 -1 -180.5 45.5t-137.5 127.5q-142 -31 -238 -87t-151.5 -127t-69.5 -149t15 -148.5t101 -125t188 -79.5q51 -11 103.5 -9t99.5 17t86.5 41t65.5 63q21 30 34 34t19.5 -4.5t7.5 -32t-9.5 -54.5t-34 -64.5t-62.5 -62
t-95 -47t-132 -20.5q-118 -2 -208.5 29.5t-152 86t-93.5 127t-33.5 153t28 164.5t93 159.5t160.5 139t257 111.5q-85 34 -145.5 58.5t-115 41.5t-100.5 21.5t-81 -12.5q-4 -28 -19.5 -44t-39.5 -18q-12 -2 -23.5 3t-21 13t-15.5 18.5t-6 21.5z" />
    <glyph glyph-name="haI" unicode="&#x62d;" horiz-adv-x="1017" arabic-form="initial" 
d="M66 401q3 52 30 84t67 47t87 15.5t89 -10.5q58 -15 123 -37.5t131 -48.5t132 -52.5t127 -47.5q15 -6 30 -10.5t26.5 -11t18.5 -16t9 -26.5q1 -28 -4 -41.5t-14.5 -19t-24 -6t-33.5 -0.5q-62 -2 -132 -18t-144 -39.5t-150 -50.5t-150.5 -49.5t-146.5 -37.5t-136 -15
q-24 0 -41.5 18t-17.5 44t17 44t41 18q95 5 169 18.5t142 34.5t137.5 47t181.5 64q-83 34 -143.5 58.5t-114.5 41.5t-100.5 21.5t-82.5 -13.5q-2 -27 -18 -43t-40 -18q-12 -2 -23.5 3t-20.5 12.5t-15 18.5t-6 22z" />
    <glyph glyph-name="haM" unicode="&#x62d;" horiz-adv-x="970" arabic-form="medial" 
d="M65 401q3 52 30.5 84t67.5 47t87 15.5t89 -10.5q58 -15 123 -37.5t131 -48.5t132 -52.5t127 -47.5q15 -6 30 -10.5t26.5 -11t18.5 -16t9 -26.5q1 -28 -4 -41.5t-14.5 -19t-24 -6t-33.5 -0.5q-18 -1 -34.5 -2.5t-60.5 -6.5q25 -17 35.5 -27t32.5 -21t55.5 -20t81.5 -9
q25 0 42 -18t17 -44t-17 -44t-41 -18q-99 -1 -180 45.5t-138 128.5q-80 -23 -162 -53t-167 -56.5t-167 -45.5t-156 -19q-25 0 -41.5 18t-16.5 44t16.5 44t40.5 18q95 5 169 18.5t142.5 34.5t138.5 47t183 64q-85 34 -145.5 58.5t-115 41.5t-100.5 21.5t-82 -13.5
q-2 -27 -18.5 -43t-39.5 -18q-12 -2 -24 3t-21.5 13t-15.5 18.5t-6 21.5z" />
    <glyph glyph-name="khaF" unicode="&#x62e;" horiz-adv-x="963" arabic-form="final" 
d="M60 401q3 52 29.5 84t66.5 47t87.5 15.5t90.5 -10.5q58 -15 122.5 -37.5t130.5 -48.5t132 -52.5t128 -47.5q15 -6 30 -10.5t26 -11t18 -16t8 -26.5q2 -29 -3 -42t-14 -18.5t-24 -6t-33 -0.5q-17 -1 -34 -2.5t-62 -6.5q25 -17 35.5 -27t32.5 -21t55.5 -20t80.5 -9
q25 0 42.5 -18t17.5 -44t-16.5 -44t-40.5 -18q-100 -1 -180.5 45.5t-137.5 127.5q-142 -31 -238 -87t-151.5 -127t-69.5 -149t15 -148.5t101 -125t188 -79.5q51 -11 103.5 -9t99.5 17t86.5 41t65.5 63q21 30 34 34t19.5 -4.5t7.5 -32t-9.5 -54.5t-34 -64.5t-62.5 -62
t-95 -47t-132 -20.5q-118 -2 -208.5 29.5t-152 86t-93.5 127t-33.5 153t28 164.5t93 159.5t160.5 139t257 111.5q-85 34 -145.5 58.5t-115 41.5t-100.5 21.5t-81 -12.5q-4 -28 -19.5 -44t-39.5 -18q-12 -2 -23.5 3t-21 13t-15.5 18.5t-6 21.5zM266 817q33 0 56 -23.5
t23 -57.5q0 -17 -6.5 -32t-17 -26.5t-25 -17.5t-30.5 -6t-30 6t-24.5 17.5t-17 26.5t-6.5 32t6 31.5t17 26t25 17.5t30 6z" />
    <glyph glyph-name="khaI" unicode="&#x62e;" horiz-adv-x="1017" arabic-form="initial" 
d="M66 401q3 52 30 84t67 47t87 15.5t89 -10.5q58 -15 123 -37.5t131 -48.5t132 -52.5t127 -47.5q15 -6 30 -10.5t26.5 -11t18.5 -16t9 -26.5q1 -28 -4 -41.5t-14.5 -19t-24 -6t-33.5 -0.5q-62 -2 -132 -18t-144 -39.5t-150 -50.5t-150.5 -49.5t-146.5 -37.5t-136 -15
q-24 0 -41.5 18t-17.5 44t17 44t41 18q95 5 169 18.5t142 34.5t137.5 47t181.5 64q-83 34 -143.5 58.5t-114.5 41.5t-100.5 21.5t-82.5 -13.5q-2 -27 -18 -43t-40 -18q-12 -2 -23.5 3t-20.5 12.5t-15 18.5t-6 22zM272 817q34 0 56.5 -23.5t22.5 -57.5q0 -17 -6.5 -32
t-17 -26.5t-24.5 -17.5t-31 -6q-16 0 -30 6t-24.5 17.5t-17 26.5t-6.5 32q0 34 22.5 57.5t55.5 23.5z" />
    <glyph glyph-name="khaM" unicode="&#x62e;" horiz-adv-x="970" arabic-form="medial" 
d="M65 401q3 52 30.5 84t67.5 47t87 15.5t89 -10.5q58 -15 123 -37.5t131 -48.5t132 -52.5t127 -47.5q15 -6 30 -10.5t26.5 -11t18.5 -16t9 -26.5q1 -28 -4 -41.5t-14.5 -19t-24 -6t-33.5 -0.5q-18 -1 -34.5 -2.5t-60.5 -6.5q25 -17 35.5 -27t32.5 -21t55.5 -20t81.5 -9
q25 0 42 -18t17 -44t-17 -44t-41 -18q-99 -1 -180 45.5t-138 128.5q-80 -23 -162 -53t-167 -56.5t-167 -45.5t-156 -19q-25 0 -41.5 18t-16.5 44t16.5 44t40.5 18q95 5 169 18.5t142.5 34.5t138.5 47t183 64q-85 34 -145.5 58.5t-115 41.5t-100.5 21.5t-82 -13.5
q-2 -27 -18.5 -43t-39.5 -18q-12 -2 -24 3t-21.5 13t-15.5 18.5t-6 21.5zM272 817q34 0 56 -23.5t22 -57.5q0 -17 -6 -32.5t-16.5 -26.5t-24.5 -17t-31 -6q-16 0 -30 6t-24.5 17.5t-17 26.5t-6.5 32t6 31.5t17 26t25 17.5t30 6z" />
    <glyph glyph-name="dalF" unicode="&#x62f;" horiz-adv-x="1204" arabic-form="final" 
d="M60 130q0 25 16.5 43.5t41.5 18.5q47 0 111.5 1.5t132.5 9t134.5 24t119.5 47.5t86 79.5t32 119.5q-1 47 -34 69.5t-82.5 29t-110 3.5t-120.5 -8t-113 -7t-89 6q-12 2 -29 12t-30.5 23.5t-19 29t3 30.5t40 30t95.5 26q60 10 134.5 14t149.5 -3t143.5 -26.5t117.5 -55
t72.5 -88.5t9.5 -132q25 -57 55 -108t69.5 -92t91 -66.5t116.5 -25.5q25 0 42.5 -18t17.5 -44q0 -25 -17 -43.5t-43 -18.5q-78 0 -136.5 24.5t-103.5 65.5t-79.5 93.5t-74.5 128.5q-28 -69 -69.5 -110.5t-98 -74t-122.5 -54.5t-131.5 -34t-126 -12.5t-105.5 10t-71 31.5
t-26 52z" />
    <glyph glyph-name="thalF" unicode="&#x630;" horiz-adv-x="1204" arabic-form="final" 
d="M60 130q0 25 16.5 43.5t41.5 18.5q47 0 111.5 1.5t132.5 9t134.5 24t119.5 47.5t86 79.5t32 119.5q-1 47 -34 69.5t-82.5 29t-110 3.5t-120.5 -8t-113 -7t-89 6q-12 2 -29 12t-30.5 23.5t-19 29t3 30.5t40 30t95.5 26q60 10 134.5 14t149.5 -3t143.5 -26.5t117.5 -55
t72.5 -88.5t9.5 -132q25 -57 55 -108t69.5 -92t91 -66.5t116.5 -25.5q25 0 42.5 -18t17.5 -44q0 -25 -17 -43.5t-43 -18.5q-78 0 -136.5 24.5t-103.5 65.5t-79.5 93.5t-74.5 128.5q-28 -69 -69.5 -110.5t-98 -74t-122.5 -54.5t-131.5 -34t-126 -12.5t-105.5 10t-71 31.5
t-26 52zM289 1008q16 0 30.5 -6t25 -17.5t17 -26.5t6.5 -32t-6 -31.5t-17 -26t-25.5 -17.5t-30.5 -6t-30 6t-25 17.5t-17 26t-6 31.5t6.5 32t17 26.5t24.5 17.5t30 6z" />
    <glyph glyph-name="raF" unicode="&#x631;" horiz-adv-x="763" arabic-form="final" 
d="M763 134q25 0 42 -18t17 -44q0 -25 -17 -43.5t-42 -18.5q-31 0 -65.5 9.5t-69 26.5t-66 38.5t-65.5 53.5q-42 -69 -81.5 -126.5t-78 -106.5t-73 -84.5t-59.5 -49.5q-23 -13 -53.5 -14.5t-61.5 5t-57.5 20.5t-32.5 22q64 25 119 67.5t96 92t73 102.5t61.5 105t61.5 100
t74 88q12 11 16.5 6t12.5 -29t20 -58.5t39 -66.5t72 -54.5t118 -22.5z" />
    <glyph glyph-name="zaiF" unicode="&#x632;" horiz-adv-x="763" arabic-form="final" 
d="M763 134q25 0 42 -18t17 -44q0 -25 -17 -43.5t-42 -18.5q-31 0 -65.5 9.5t-69 26.5t-66 38.5t-65.5 53.5q-42 -69 -81.5 -126.5t-78 -106.5t-73 -84.5t-59.5 -49.5q-23 -13 -53.5 -14.5t-61.5 5t-57.5 20.5t-32.5 22q64 25 119 67.5t96 92t73 102.5t61.5 105t61.5 100
t74 88q12 11 16.5 6t12.5 -29t20 -58.5t39 -66.5t72 -54.5t118 -22.5zM543 660q16 0 30 -6t25.5 -17.5t17.5 -26.5t6 -32t-6 -31.5t-17.5 -26t-25.5 -17.5t-30 -6q-33 0 -56 23.5t-23 57.5q0 17 6.5 32t17 26.5t25 17.5t30.5 6z" />
    <glyph glyph-name="seenF" unicode="&#x633;" horiz-adv-x="1659" arabic-form="final" 
d="M1513 215q-31 -112 -71.5 -136t-89.5 -21.5t-97 29.5t-85 91q-38 -73 -68.5 -101t-58.5 -37t-54 -2t-48.5 21.5t-39 32.5t-35.5 46q-36 -63 -74 -110.5t-89 -84t-115.5 -59t-147.5 -20.5q-63 1 -122 23.5t-108 66t-87 108t-56 149.5q-13 63 -3.5 106.5t31 69.5t50.5 37
t56 7.5t46 -19t23 -42.5t-13 -66.5t-70 -94.5q14 -67 40 -111t60 -73.5t75 -42.5t85 -12q96 2 165.5 40t119 92.5t82.5 117t54 109.5q21 4 41.5 -1t28.5 -24q0 3 -7.5 -7t-16.5 -26t-14 -36t7 -37q33 -49 74 -52t77 27t62.5 83.5t35.5 114.5q34 14 44.5 15.5l10.5 1.5
q1 -1 0 -17t-0.5 -40t4.5 -51.5t16.5 -52.5t35.5 -43.5t60 -21.5q36 -3 54 10t23 35.5t2 50t-7 56t-5.5 55t4.5 47.5q2 5 10 6t23.5 -2t34 -7.5t27.5 -5.5q0 -36 3 -83.5t18.5 -88.5t50 -69t94.5 -32q22 -3 36.5 -20.5t14.5 -41.5q0 -26 -17 -44t-41 -18q-29 0 -53 12.5
t-42 33t-28 47t-16 112.5z" />
    <glyph glyph-name="seenI" unicode="&#x633;" horiz-adv-x="964" arabic-form="initial" 
d="M760 58q-28 -3 -57 3t-55.5 19t-49.5 33.5t-47 64.5q-39 -73 -69.5 -101t-59 -37t-54.5 -2t-48.5 21.5t-39 32.5t-33.5 44q-30 -37 -54 -58.5t-52.5 -36.5t-62 -23t-76.5 -8q-25 0 -42 18t-17 44t16.5 43.5t40.5 18.5q53 -1 102 20q42 18 83 59.5t63 115.5q20 4 40 -1
t29 -24q-1 3 -8 -7t-15.5 -26t-14 -36t6.5 -37q32 -49 73 -52t77.5 27t63.5 83.5t35 114.5q35 14 45 15.5t11 1.5q0 -1 -1 -17t-0.5 -40t4.5 -51.5t16.5 -52.5t35.5 -43.5t60 -21.5q36 -3 54 10t23 35.5t2 50t-7 56t-5.5 55t4.5 47.5q2 5 10 6t23.5 -2t34 -7.5t27.5 -5.5
q-1 -19 3.5 -55.5t7 -75t0.5 -76.5t-14.5 -67.5t-38 -49.5t-70.5 -25z" />
    <glyph glyph-name="seenM" unicode="&#x633;" horiz-adv-x="1038" arabic-form="medial" 
d="M892 213q-26 -92 -48 -114.5t-50 -33t-62 -8.5t-66 14.5t-60 35.5t-55 71q-39 -73 -69.5 -101t-58.5 -37t-54 -2t-48.5 21.5t-39 32.5t-33.5 44q-30 -37 -54 -58.5t-52 -36.5t-62 -23t-76 -8q-25 0 -42.5 18t-17.5 44t16.5 43.5t39.5 18.5q53 -1 102 20q42 18 83.5 59.5
t63.5 115.5q19 4 39.5 -1t28.5 -24q-1 3 -8 -7t-15 -26t-13.5 -36t6.5 -37q32 -49 73 -52t77.5 27t63.5 83.5t35 114.5q35 14 44.5 15.5l9.5 1.5q1 -1 0 -17t-0.5 -40t4.5 -51.5t16.5 -52.5t35.5 -43.5t60 -21.5q36 -3 54 10t23 35.5t2 50t-7 56t-5 55t5 47.5q2 5 10 6
t23 -2t33.5 -7.5t27.5 -5.5q0 -36 3 -83.5t19 -88.5t50 -69t94 -32q22 -3 37 -20.5t15 -41.5q0 -26 -17 -44t-42 -18q-29 0 -52.5 12.5t-41 33t-28.5 47t-17 110.5z" />
    <glyph glyph-name="sheenF" unicode="&#x634;" horiz-adv-x="1659" arabic-form="final" 
d="M1513 215q-31 -112 -71.5 -136t-89.5 -21.5t-97 29.5t-85 91q-38 -73 -68.5 -101t-58.5 -37t-54 -2t-48.5 21.5t-39 32.5t-35.5 46q-36 -63 -74 -110.5t-89 -84t-115.5 -59t-147.5 -20.5q-63 1 -122 23.5t-108 66t-87 108t-56 149.5q-13 63 -3.5 106.5t31 69.5t50.5 37
t56 7.5t46 -19t23 -42.5t-13 -66.5t-70 -94.5q14 -67 40 -111t60 -73.5t75 -42.5t85 -12q96 2 165.5 40t119 92.5t82.5 117t54 109.5q21 4 41.5 -1t28.5 -24q0 3 -7.5 -7t-16.5 -26t-14 -36t7 -37q33 -49 74 -52t77 27t62.5 83.5t35.5 114.5q34 14 44.5 15.5l10.5 1.5
q1 -1 0 -17t-0.5 -40t4.5 -51.5t16.5 -52.5t35.5 -43.5t60 -21.5q36 -3 54 10t23 35.5t2 50t-7 56t-5.5 55t4.5 47.5q2 5 10 6t23.5 -2t34 -7.5t27.5 -5.5q0 -36 3 -83.5t18.5 -88.5t50 -69t94.5 -32q22 -3 36.5 -20.5t14.5 -41.5q0 -26 -17 -44t-41 -18q-29 0 -53 12.5
t-42 33t-28 47t-16 112.5zM1059 738q16 0 30 -6t24.5 -17.5t17 -26.5t6.5 -32t-6.5 -32t-17 -26.5t-24.5 -17.5t-30 -6t-30.5 6t-25.5 17.5t-17 26.5t-6 32t6 32t17 26.5t25.5 17.5t30.5 6zM1249 684q16 0 30 -6t24 -17t16.5 -26.5t6.5 -32.5t-6.5 -32t-16.5 -26t-24 -17.5
t-30 -6.5t-30.5 6.5t-25.5 18t-17 26t-6 31.5t6 32t17 26.5t25.5 17.5t30.5 6zM1202 897q16 0 30 -6t25 -17.5t17.5 -26.5t6.5 -32t-6.5 -31.5t-17.5 -26t-25 -17.5t-30 -6t-30 6t-25 17.5t-17 26t-6 31.5t6 32t17 26.5t25 17.5t30 6z" />
    <glyph glyph-name="sheenI" unicode="&#x634;" horiz-adv-x="964" arabic-form="initial" 
d="M760 58q-28 -3 -57 3t-55.5 19t-49.5 33.5t-47 64.5q-39 -73 -69.5 -101t-59 -37t-54.5 -2t-48.5 21.5t-39 32.5t-33.5 44q-30 -37 -54 -58.5t-52.5 -36.5t-62 -23t-76.5 -8q-25 0 -42 18t-17 44t16.5 43.5t40.5 18.5q53 -1 102 20q42 18 83 59.5t63 115.5q20 4 40 -1
t29 -24q-1 3 -8 -7t-15.5 -26t-14 -36t6.5 -37q32 -49 73 -52t77.5 27t63.5 83.5t35 114.5q35 14 45 15.5t11 1.5q0 -1 -1 -17t-0.5 -40t4.5 -51.5t16.5 -52.5t35.5 -43.5t60 -21.5q36 -3 54 10t23 35.5t2 50t-7 56t-5.5 55t4.5 47.5q2 5 10 6t23.5 -2t34 -7.5t27.5 -5.5
q-1 -19 3.5 -55.5t7 -75t0.5 -76.5t-14.5 -67.5t-38 -49.5t-70.5 -25zM437 738q16 0 30.5 -6t25 -17.5t17 -26.5t6.5 -32t-6.5 -32t-17 -26.5t-25 -17.5t-30.5 -6t-30 6t-24.5 17.5t-17 26.5t-6.5 32t6.5 32t17 26.5t24.5 17.5t30 6zM628 684q16 0 30 -6t24 -17t16.5 -26.5
t6.5 -32.5t-6.5 -32t-16.5 -26t-24 -17.5t-30 -6.5q-34 0 -56.5 24t-22.5 58q0 17 6.5 32t17 26.5t24.5 17.5t31 6zM581 897q16 0 30 -6t24 -17t16.5 -26.5t6.5 -32.5t-6.5 -32t-16.5 -26t-24 -17t-30 -6t-30.5 6t-25.5 17.5t-17 26t-6 31.5t6.5 32t17 26.5t25 17.5t30.5 6z
" />
    <glyph glyph-name="sheenM" unicode="&#x634;" horiz-adv-x="1038" arabic-form="medial" 
d="M892 213q-26 -92 -48 -114.5t-50 -33t-62 -8.5t-66 14.5t-60 35.5t-55 71q-39 -73 -69.5 -101t-58.5 -37t-54 -2t-48.5 21.5t-39 32.5t-33.5 44q-30 -37 -54 -58.5t-52 -36.5t-62 -23t-76 -8q-25 0 -42.5 18t-17.5 44t16.5 43.5t39.5 18.5q53 -1 102 20q42 18 83.5 59.5
t63.5 115.5q19 4 39.5 -1t28.5 -24q-1 3 -8 -7t-15 -26t-13.5 -36t6.5 -37q32 -49 73 -52t77.5 27t63.5 83.5t35 114.5q35 14 44.5 15.5l9.5 1.5q1 -1 0 -17t-0.5 -40t4.5 -51.5t16.5 -52.5t35.5 -43.5t60 -21.5q36 -3 54 10t23 35.5t2 50t-7 56t-5 55t5 47.5q2 5 10 6
t23 -2t33.5 -7.5t27.5 -5.5q0 -36 3 -83.5t19 -88.5t50 -69t94 -32q22 -3 37 -20.5t15 -41.5q0 -26 -17 -44t-42 -18q-29 0 -52.5 12.5t-41 33t-28.5 47t-17 110.5zM438 738q16 0 30.5 -6t25 -17.5t17 -26.5t6.5 -32t-6.5 -32t-17 -26.5t-25 -17.5t-30.5 -6t-30.5 6
t-25 17.5t-17 26.5t-6.5 32t6.5 32t17 26.5t25 17.5t30.5 6zM628 684q16 0 30 -6t24.5 -17.5t17 -26.5t6.5 -32q0 -34 -22.5 -58t-55.5 -24q-16 0 -30 6.5t-25 18t-17 26t-6 31.5t6.5 32t17 26.5t24.5 17.5t30 6zM582 897q16 0 30 -6t24.5 -17.5t17 -26.5t6.5 -32t-6 -31.5
t-17 -26t-25 -17.5t-30 -6t-30.5 6t-25.5 17.5t-17 26t-6 31.5t6.5 32t17 26.5t25 17.5t30.5 6z" />
    <glyph glyph-name="sadF" unicode="&#x635;" horiz-adv-x="1605" arabic-form="final" 
d="M68 211q-14 63 -4.5 106t31.5 69.5t51 37.5t55.5 7.5t45.5 -19t23 -42.5t-13 -66.5t-70 -94.5q19 -88 56.5 -139t85 -75t101 -24.5t105.5 16t99.5 45.5t82.5 64.5t54 75.5t14 80q-37 46 -46 79t-2.5 54.5t24.5 33t38 12t37.5 -10.5t24.5 -34q13 -42 21.5 -86t16.5 -80
t22.5 -60.5t51.5 -17.5q-10 80 0.5 154t36.5 142t66 124t90 90.5t109 43t125 -18.5q39 -17 72 -45.5t56 -65.5t34.5 -80.5t7.5 -87.5q-5 -52 -39.5 -102.5t-96.5 -106.5q37 -28 76 -41.5t95 -13.5q25 0 42.5 -18t17.5 -44q0 -25 -17.5 -43.5t-42.5 -18.5q-31 0 -64 8.5
t-66 24.5t-64 36.5t-62 47.5q-73 -44 -145 -71t-137.5 -36t-117 3t-88.5 62q-63 -110 -136 -167t-152.5 -77t-159 -5t-148.5 63t-121.5 126.5t-75.5 185.5zM1066 156q144 29 225.5 68.5t123 84.5t47.5 91.5t-13 85.5t-56.5 65.5t-83 32.5t-92.5 -11.5t-82.5 -66.5
t-55.5 -131.5t-13 -218.5z" />
    <glyph glyph-name="sadI" unicode="&#x635;" horiz-adv-x="1011" arabic-form="initial" 
d="M0 134q18 0 50.5 8t60 22t42 38t-8.5 52q-36 44 -45 77t-2 54.5t24.5 33t37.5 12t38.5 -10.5t24.5 -34q13 -42 20.5 -86t16.5 -80t23 -60.5t51 -17.5q-10 80 0.5 154t36.5 142t65.5 124t90 90.5t109.5 43t124 -18.5q41 -17 73.5 -45.5t56 -65.5t34.5 -80.5t7 -87.5
q-4 -47 -33 -94t-75.5 -90.5t-105.5 -81t-122 -64t-125 -40.5t-113.5 -11t-88.5 24t-61 87q-16 -36 -28 -50.5t-34.5 -29t-58 -25t-86.5 -13.5q-11 -1 -22 4t-19 14t-13 20.5t-5 23.5q0 26 18 44t42 18zM427 156q143 29 224.5 68.5t123.5 84.5t47.5 91.5t-13.5 85.5
t-57 65.5t-83 32.5t-91.5 -11.5t-82.5 -66.5t-56 -131.5t-12 -218.5z" />
    <glyph glyph-name="sadM" unicode="&#x635;" horiz-adv-x="965" arabic-form="medial" 
d="M0 134q12 0 31.5 3.5t39 10.5t38.5 16.5t32 22.5t16 30.5t-13 36.5q-36 44 -45.5 77t-2.5 54.5t24.5 33t37.5 12t38 -10.5t24 -34q13 -42 21 -86t17 -80t23 -60.5t52 -17.5q-10 80 0.5 154t36.5 142t65.5 124t90 90.5t109.5 43t124 -18.5q40 -17 72.5 -45.5t56 -65.5
t34.5 -80.5t8 -87.5q-6 -57 -40 -107t-98 -100q37 -30 76.5 -43.5t96.5 -13.5q24 0 41 -18t17 -44q0 -25 -16.5 -43.5t-41.5 -18.5q-32 0 -66 9.5t-68.5 26.5t-66.5 38.5t-63 49.5q-37 -20 -80 -42t-91.5 -41.5t-97.5 -32t-92 -9t-76 25t-59 93.5q-16 -36 -28 -50.5
t-34.5 -29t-57.5 -25t-86 -13.5q-12 -1 -23 4t-18.5 13.5t-12.5 20.5t-5 24q0 26 17.5 44t42.5 18zM425 156q143 29 224.5 68.5t123.5 84.5t47.5 91.5t-13 85.5t-56.5 65.5t-83 32.5t-92 -11.5t-83 -66.5t-56 -131.5t-12 -218.5z" />
    <glyph glyph-name="dadF" unicode="&#x636;" horiz-adv-x="1605" arabic-form="final" 
d="M1125 969q16 0 30.5 -6.5t25 -18t17 -26t6.5 -31.5t-6.5 -32t-17 -26.5t-25 -18t-30.5 -6.5t-30 6.5t-24.5 17.5t-16.5 26.5t-6 32.5t6 32t16.5 26t24.5 17.5t30 6.5zM68 211q-14 63 -4.5 106t31.5 69.5t51 37.5t55.5 7.5t45.5 -19t23 -42.5t-13 -66.5t-70 -94.5
q19 -88 56.5 -139t85 -75t101 -24.5t105.5 16t99.5 45.5t82.5 64.5t54 75.5t14 80q-37 46 -46 79t-2.5 54.5t24.5 33t38 12t37.5 -10.5t24.5 -34q13 -42 21.5 -86t16.5 -80t22.5 -60.5t51.5 -17.5q-10 80 0.5 154t36.5 142t66 124t90 90.5t109 43t125 -18.5q39 -17 72 -45.5
t56 -65.5t34.5 -80.5t7.5 -87.5q-5 -52 -39.5 -102.5t-96.5 -106.5q37 -28 76 -41.5t95 -13.5q25 0 42.5 -18t17.5 -44q0 -25 -17.5 -43.5t-42.5 -18.5q-31 0 -64 8.5t-66 24.5t-64 36.5t-62 47.5q-73 -44 -145 -71t-137.5 -36t-117 3t-88.5 62q-63 -110 -136 -167
t-152.5 -77t-159 -5t-148.5 63t-121.5 126.5t-75.5 185.5zM1066 156q144 29 225.5 68.5t123 84.5t47.5 91.5t-13 85.5t-56.5 65.5t-83 32.5t-92.5 -11.5t-82.5 -66.5t-55.5 -131.5t-13 -218.5z" />
    <glyph glyph-name="dadI" unicode="&#x636;" horiz-adv-x="1011" arabic-form="initial" 
d="M485 969q16 0 30.5 -6.5t25.5 -18t17 -26t6 -31.5t-6.5 -32t-17 -26.5t-25 -18t-30.5 -6.5t-30 6.5t-24.5 18t-17 26.5t-6.5 32t6 31.5t17 26t25 18t30 6.5zM0 134q18 0 50.5 8t60 22t42 38t-8.5 52q-36 44 -45 77t-2 54.5t24.5 33t37.5 12t38.5 -10.5t24.5 -34
q13 -42 20.5 -86t16.5 -80t23 -60.5t51 -17.5q-10 80 0.5 154t36.5 142t65.5 124t90 90.5t109.5 43t124 -18.5q41 -17 73.5 -45.5t56 -65.5t34.5 -80.5t7 -87.5q-4 -47 -33 -94t-75.5 -90.5t-105.5 -81t-122 -64t-125 -40.5t-113.5 -11t-88.5 24t-61 87q-16 -36 -28 -50.5
t-34.5 -29t-58 -25t-86.5 -13.5q-11 -1 -22 4t-19 14t-13 20.5t-5 23.5q0 26 18 44t42 18zM427 156q143 29 224.5 68.5t123.5 84.5t47.5 91.5t-13.5 85.5t-57 65.5t-83 32.5t-91.5 -11.5t-82.5 -66.5t-56 -131.5t-12 -218.5z" />
    <glyph glyph-name="dadM" unicode="&#x636;" horiz-adv-x="965" arabic-form="medial" 
d="M485 969q16 0 30 -6.5t25.5 -18t17.5 -26t6 -31.5t-6 -32t-17.5 -26.5t-25.5 -18t-30 -6.5t-30.5 6.5t-25 18t-17 26.5t-6.5 32t6 31.5t17 26t25.5 18t30.5 6.5zM0 134q12 0 31.5 3.5t39 10.5t38.5 16.5t32 22.5t16 30.5t-13 36.5q-36 44 -45.5 77t-2.5 54.5t24.5 33
t37.5 12t38 -10.5t24 -34q13 -42 21 -86t17 -80t23 -60.5t52 -17.5q-10 80 0.5 154t36.5 142t65.5 124t90 90.5t109.5 43t124 -18.5q40 -17 72.5 -45.5t56 -65.5t34.5 -80.5t8 -87.5q-6 -57 -40 -107t-98 -100q37 -30 76.5 -43.5t96.5 -13.5q24 0 41 -18t17 -44
q0 -25 -16.5 -43.5t-41.5 -18.5q-32 0 -66 9.5t-68.5 26.5t-66.5 38.5t-63 49.5q-37 -20 -80 -42t-91.5 -41.5t-97.5 -32t-92 -9t-76 25t-59 93.5q-16 -36 -28 -50.5t-34.5 -29t-57.5 -25t-86 -13.5q-12 -1 -23 4t-18.5 13.5t-12.5 20.5t-5 24q0 26 17.5 44t42.5 18z
M425 156q143 29 224.5 68.5t123.5 84.5t47.5 91.5t-13 85.5t-56.5 65.5t-83 32.5t-92 -11.5t-83 -66.5t-56 -131.5t-12 -218.5z" />
    <glyph glyph-name="ttaF" unicode="&#x637;" horiz-adv-x="838" arabic-form="final" 
d="M120 134q20 0 38 1t48 7q-12 104 -2 190.5t42 155t87 114t228 74.5q-116 5 -127.5 13.5t-13.5 26.5q-12 134 -19 263t-10 258q0 11 0.5 24t4 23t10.5 16t20 5q11 0 23 5t20.5 7t11.5 1t4 -11q9 -153 26.5 -305t24.5 -306q66 0 114.5 -25.5t84 -67.5t54.5 -95.5t14 -109.5
q-5 -58 -38.5 -107.5t-99.5 -99.5q37 -30 76.5 -43.5t96.5 -13.5q25 0 42.5 -18t17.5 -44q0 -25 -17.5 -43.5t-42.5 -18.5q-31 0 -65 9.5t-68.5 26.5t-66.5 38.5t-62 49.5q-52 -27 -107 -49t-113 -38t-116.5 -26.5t-110.5 -10.5q-29 0 -49 15.5t-20 46.5q0 26 17 44t43 18z
M300 156q143 29 224.5 68.5t123.5 84.5t47.5 91.5t-13 85.5t-56.5 65.5t-83 32.5t-92 -11.5t-83 -66.5t-56 -131.5t-12 -218.5z" />
    <glyph glyph-name="ttaI" unicode="&#x637;" horiz-adv-x="765" arabic-form="initial" 
d="M0 134q20 0 38 1t49 7q-12 104 -2 190.5t42 155t86.5 114t230.5 74.5q-119 5 -130.5 13.5t-13.5 26.5q-11 134 -18.5 263t-9.5 258q0 11 0.5 24t4.5 23t10 16t19 5q11 0 23 4.5t21 7t12.5 1.5t4.5 -11q9 -153 26 -305t23 -306q66 0 115 -25.5t84.5 -67.5t54.5 -95.5
t14 -109.5q-5 -59 -41.5 -110.5t-93.5 -94.5t-129 -77t-145 -57t-142.5 -35.5t-121.5 -13.5q-31 0 -51 15.5t-20 46.5q0 26 17 44t43 18zM181 156q143 29 224.5 68.5t123.5 84.5t47.5 91.5t-13.5 85.5t-57 65.5t-83 32.5t-91.5 -11.5t-82.5 -66.5t-56 -131.5t-12 -218.5z
" />
    <glyph glyph-name="ttaM" unicode="&#x637;" horiz-adv-x="719" arabic-form="medial" 
d="M0 134q20 0 38 1t49 7q-12 104 -2 190.5t42 155t86.5 114t230.5 74.5q-119 5 -130.5 13.5t-13.5 26.5q-11 134 -18.5 263t-9.5 259q-1 10 0 23t4.5 23t10.5 16t19 5q11 0 23 5t21 7t12 1t4 -11q9 -153 26.5 -305t23.5 -306q66 0 115 -25.5t84.5 -67.5t54.5 -95.5
t14 -109.5q-6 -57 -39.5 -107t-98.5 -100q37 -30 76.5 -43.5t96.5 -13.5q25 0 42 -18t17 -44q0 -25 -17 -43.5t-42 -18.5q-32 0 -66 9.5t-68.5 26.5t-66 38.5t-61.5 49.5q-52 -27 -107 -49t-113.5 -38t-117 -26.5t-109.5 -10.5q-30 0 -50 15.5t-20 46.5q0 26 17 44t43 18z
M181 156q143 29 224.5 68.5t123.5 84.5t47.5 91.5t-13.5 85.5t-57 65.5t-83 32.5t-91.5 -11.5t-82.5 -66.5t-56 -131.5t-12 -218.5z" />
    <glyph glyph-name="zaF" unicode="&#x638;" horiz-adv-x="848" arabic-form="final" 
d="M120 134q20 0 38 1t48 7q-12 104 -2 190.5t42 155t87 114t228 74.5q-116 5 -127.5 13.5t-13.5 26.5q-12 134 -19 263t-10 258q0 11 0.5 24t4 23t10.5 16t20 5q11 0 23 5t20.5 7t11.5 1t4 -11q9 -153 26.5 -305t24.5 -306q66 0 114.5 -25.5t84 -67.5t54.5 -95.5t14 -109.5
q-5 -58 -38.5 -107.5t-99.5 -99.5q37 -30 76.5 -43.5t96.5 -13.5q25 0 42.5 -18t17.5 -44q0 -25 -17.5 -43.5t-42.5 -18.5q-31 0 -65 9.5t-68.5 26.5t-66.5 38.5t-62 49.5q-52 -27 -107 -49t-113 -38t-116.5 -26.5t-110.5 -10.5q-29 0 -49 15.5t-20 46.5q0 26 17 44t43 18z
M300 156q143 29 224.5 68.5t123.5 84.5t47.5 91.5t-13 85.5t-56.5 65.5t-83 32.5t-92 -11.5t-83 -66.5t-56 -131.5t-12 -218.5zM688 1010q17 0 31 -6t24.5 -17t16.5 -26.5t6 -32.5t-6 -32.5t-16.5 -26.5t-24.5 -17t-31 -6q-16 0 -30 6t-24.5 17.5t-17 26.5t-6.5 32t6.5 32
t17 26.5t24.5 17.5t30 6z" />
    <glyph glyph-name="zaI" unicode="&#x638;" horiz-adv-x="765" arabic-form="initial" 
d="M0 134q20 0 38 1t49 7q-12 104 -2 190.5t42 155t86.5 114t230.5 74.5q-119 5 -130.5 13.5t-13.5 26.5q-11 134 -18.5 263t-9.5 258q0 11 0.5 24t4.5 23t10 16t19 5q11 0 23 4.5t21 7t12.5 1.5t4.5 -11q9 -153 26 -305t23 -306q66 0 115 -25.5t84.5 -67.5t54.5 -95.5
t14 -109.5q-5 -59 -41.5 -110.5t-93.5 -94.5t-129 -77t-145 -57t-142.5 -35.5t-121.5 -13.5q-31 0 -51 15.5t-20 46.5q0 26 17 44t43 18zM181 156q143 29 224.5 68.5t123.5 84.5t47.5 91.5t-13.5 85.5t-57 65.5t-83 32.5t-91.5 -11.5t-82.5 -66.5t-56 -131.5t-12 -218.5z
M569 1010q16 0 30.5 -6t25 -17.5t17 -26.5t6.5 -32t-6.5 -32t-17 -26.5t-25 -17.5t-30.5 -6t-30 6t-25.5 17.5t-17.5 26.5t-6 32t6 32t17.5 26.5t25.5 17.5t30 6z" />
    <glyph glyph-name="zaM" unicode="&#x638;" horiz-adv-x="719" arabic-form="medial" 
d="M0 134q20 0 38 1t49 7q-12 104 -2 190.5t42 155t86.5 114t230.5 74.5q-119 5 -130.5 13.5t-13.5 26.5q-11 134 -18.5 263t-9.5 259q-1 10 0 23t4.5 23t10.5 16t19 5q11 0 23 5t21 7t12 1t4 -11q9 -153 26.5 -305t23.5 -306q66 0 115 -25.5t84.5 -67.5t54.5 -95.5
t14 -109.5q-6 -57 -39.5 -107t-98.5 -100q37 -30 76.5 -43.5t96.5 -13.5q25 0 42 -18t17 -44q0 -25 -17 -43.5t-42 -18.5q-32 0 -66 9.5t-68.5 26.5t-66 38.5t-61.5 49.5q-52 -27 -107 -49t-113.5 -38t-117 -26.5t-109.5 -10.5q-30 0 -50 15.5t-20 46.5q0 26 17 44t43 18z
M181 156q143 29 224.5 68.5t123.5 84.5t47.5 91.5t-13.5 85.5t-57 65.5t-83 32.5t-91.5 -11.5t-82.5 -66.5t-56 -131.5t-12 -218.5zM569 1010q16 0 30 -6t24.5 -17t16.5 -26.5t6 -32.5t-6 -32.5t-16.5 -26.5t-24.5 -17t-30 -6t-30.5 6t-25 17.5t-17 26.5t-6.5 32t6.5 32
t17 26.5t25 17.5t30.5 6z" />
    <glyph glyph-name="ainF" unicode="&#x639;" horiz-adv-x="712" arabic-form="final" 
d="M712 10q-38 0 -79 13.5t-81.5 36t-75 51t-65.5 67.5q-61 -76 -101 -147q-17 -30 -34 -63.5t-31 -68.5t-23 -70.5t-10 -69.5q-2 -64 24 -115.5t70 -88.5t101.5 -59.5t120.5 -29.5q48 -6 98.5 -3t95.5 17t83 39t63 60q22 31 35 35t19.5 -5.5t5.5 -36t-15.5 -59.5t-44 -67.5
t-77 -62.5t-115 -44t-159.5 -11q-105 6 -184.5 45t-132 100t-77.5 138t-20 160q3 47 13.5 91.5t27.5 85t36.5 77t40.5 68.5q48 73 116 142q-53 43 -98 77.5t-95 65.5q-38 5 -55.5 7t-24 11.5t-4.5 36t11 83.5q5 37 29.5 62.5t62.5 40.5t86 22t98 7t98.5 -6t86.5 -15
t60.5 -19t25.5 -18q11 -9 1.5 -43t-32 -81.5t-54 -101t-64.5 -104.5q30 -27 57 -48.5t56.5 -38.5t61.5 -28t68 -11q25 0 42.5 -18t17.5 -44q0 -25 -17.5 -43.5t-42.5 -18.5zM176 488q52 -32 79.5 -53t49.5 -40t40.5 -37.5t42.5 -41.5q15 15 29.5 39t30 51t29 52t29.5 47
q-58 16 -93.5 22.5t-69.5 6t-69 -10t-98 -35.5z" />
    <glyph glyph-name="ainI" unicode="&#x639;" horiz-adv-x="808" arabic-form="initial" 
d="M0 10q-25 0 -42.5 18t-17.5 44t17.5 44t42.5 18q20 0 68.5 5t130.5 16q-50 38 -75.5 67t-41 62.5t-21.5 73t3 84.5q14 77 55.5 121t96.5 63t118.5 16t122 -21t103.5 -47t63 -60q2 -10 -2 -30t-11.5 -35t-15.5 -19t-16 6q-32 36 -76 56t-91 26t-94 0t-84 -23t-61.5 -43
t-24.5 -59.5t28 -71.5t91 -76q60 -36 118 -40t115.5 5t113.5 21t106 9q15 -52 5.5 -81.5t-37.5 -44t-73 -19.5t-98 -9q-65 -6 -128.5 -18.5l-127 -25t-128 -22t-132.5 -10.5z" />
    <glyph glyph-name="ainM" unicode="&#x639;" horiz-adv-x="584" arabic-form="medial" 
d="M584 10q-38 0 -79 13.5t-81.5 36t-75 51t-67.5 69.5q-31 -55 -62 -84.5t-67 -48.5t-74 -28t-77 -9q-25 0 -42.5 18t-17.5 44t17.5 44t41.5 18q35 -2 64.5 5.5t54.5 20.5t46 31t43 44q-53 43 -98 77.5t-95 65.5q-37 5 -54.5 7t-24 11.5t-4.5 36t11 83.5q5 37 29.5 62.5
t62.5 40.5t86 22t98 7t98.5 -6t86.5 -15t60.5 -19t25.5 -18q11 -9 1.5 -43t-32 -81.5t-54 -101t-64.5 -104.5q30 -27 57 -48.5t56.5 -38.5t61.5 -28t68 -11q25 0 42.5 -18t17.5 -44q0 -25 -17.5 -43.5t-42.5 -18.5zM47 487q53 -31 80 -52t49.5 -40t40.5 -37.5t42 -41.5
q15 15 29.5 39t30 51t29.5 52t30 47q-59 16 -94.5 22.5t-69.5 6t-69 -10t-98 -36.5z" />
    <glyph glyph-name="ghainF" unicode="&#x63a;" horiz-adv-x="712" arabic-form="final" 
d="M340 903q17 0 31 -6t24.5 -17.5t17 -26.5t6.5 -32t-6.5 -31.5t-17 -26t-24.5 -17.5t-31 -6q-16 0 -30 6t-24.5 17t-16.5 26t-6 32t6 32.5t16.5 26.5t24.5 17t30 6zM712 10q-38 0 -79 13.5t-81.5 36t-75 51t-65.5 67.5q-61 -76 -101 -147q-17 -30 -34 -63.5t-31 -68.5
t-23 -70.5t-10 -69.5q-2 -64 24 -115.5t70 -88.5t101.5 -59.5t120.5 -29.5q48 -6 98.5 -3t95.5 17t83 39t63 60q22 31 35 35t19.5 -5.5t5.5 -36t-15.5 -59.5t-44 -67.5t-77 -62.5t-115 -44t-159.5 -11q-105 6 -184.5 45t-132 100t-77.5 138t-20 160q3 47 13.5 91.5t27.5 85
t36.5 77t40.5 68.5q48 73 116 142q-53 43 -98 77.5t-95 65.5q-38 5 -55.5 7t-24 11.5t-4.5 36t11 83.5q5 37 29.5 62.5t62.5 40.5t86 22t98 7t98.5 -6t86.5 -15t60.5 -19t25.5 -18q11 -9 1.5 -43t-32 -81.5t-54 -101t-64.5 -104.5q30 -27 57 -48.5t56.5 -38.5t61.5 -28
t68 -11q25 0 42.5 -18t17.5 -44q0 -25 -17.5 -43.5t-42.5 -18.5zM176 488q52 -32 79.5 -53t49.5 -40t40.5 -37.5t42.5 -41.5q15 15 29.5 39t30 51t29 52t29.5 47q-58 16 -93.5 22.5t-69.5 6t-69 -10t-98 -35.5z" />
    <glyph glyph-name="ghainI" unicode="&#x63a;" horiz-adv-x="808" arabic-form="initial" 
d="M0 10q-25 0 -42.5 18t-17.5 44t17.5 44t42.5 18q20 0 68.5 5t130.5 16q-50 38 -75.5 67t-41 62.5t-21.5 73t3 84.5q14 77 55.5 121t96.5 63t118.5 16t122 -21t103.5 -47t63 -60q2 -10 -2 -30t-11.5 -35t-15.5 -19t-16 6q-32 36 -76 56t-91 26t-94 0t-84 -23t-61.5 -43
t-24.5 -59.5t28 -71.5t91 -76q60 -36 118 -40t115.5 5t113.5 21t106 9q15 -52 5.5 -81.5t-37.5 -44t-73 -19.5t-98 -9q-65 -6 -128.5 -18.5l-127 -25t-128 -22t-132.5 -10.5zM289 903q16 0 30.5 -6t25 -17.5t17 -26.5t6.5 -32t-6 -31.5t-17 -26t-25.5 -17.5t-30.5 -6t-30 6
t-24.5 17.5t-16.5 26t-6 31.5t6 32.5t16.5 26.5t24.5 17t30 6z" />
    <glyph glyph-name="ghainM" unicode="&#x63a;" horiz-adv-x="584" arabic-form="medial" 
d="M207 903q16 0 30 -6t24.5 -17.5t17 -26.5t6.5 -32t-6.5 -31.5t-17 -26t-24.5 -17.5t-30 -6t-30 6t-25 17.5t-17 26t-6 31.5t6 32t17 26.5t25 17.5t30 6zM584 10q-38 0 -79 13.5t-81.5 36t-75 51t-67.5 69.5q-31 -55 -62 -84.5t-67 -48.5t-74 -28t-77 -9q-25 0 -42.5 18
t-17.5 44t17.5 44t41.5 18q35 -2 64.5 5.5t54.5 20.5t46 31t43 44q-53 43 -98 77.5t-95 65.5q-37 5 -54.5 7t-24 11.5t-4.5 36t11 83.5q5 37 29.5 62.5t62.5 40.5t86 22t98 7t98.5 -6t86.5 -15t60.5 -19t25.5 -18q11 -9 1.5 -43t-32 -81.5t-54 -101t-64.5 -104.5
q30 -27 57 -48.5t56.5 -38.5t61.5 -28t68 -11q25 0 42.5 -18t17.5 -44q0 -25 -17.5 -43.5t-42.5 -18.5zM47 487q53 -31 80 -52t49.5 -40t40.5 -37.5t42 -41.5q15 15 29.5 39t30 51t29.5 52t30 47q-59 16 -94.5 22.5t-69.5 6t-69 -10t-98 -36.5z" />
    <glyph glyph-name="faF" unicode="&#x641;" horiz-adv-x="1472" arabic-form="final" 
d="M765 139q20 2 38 4t32 4t35 6.5t-5 17.5q-46 38 -68 88t-22.5 101t19 99t56 84t89 55t118.5 11q61 -7 110 -31t82.5 -59.5t51.5 -78.5t17 -87.5t-22 -88t-80 -91.5q64 -16 107 -24q36 -7 77.5 -12t71.5 -3q25 0 41.5 -18t16.5 -44t-16.5 -44t-41.5 -18q-49 0 -97.5 7
t-96 18.5t-93.5 25t-93 26.5q-71 -28 -162 -46.5t-191.5 -25.5t-202.5 0t-192.5 32.5t-161.5 71t-110 115.5q-11 20 -11 37.5t8.5 30t25.5 19.5t40 5q41 -3 82 -19.5t86 -39.5t94.5 -48t106 -45.5t121.5 -31t140 -3.5zM1032 507q-48 2 -80.5 -18.5t-49 -53t-16 -71
t18.5 -72.5t54.5 -59t92.5 -29q50 17 83 45t50 60.5t16.5 66.5t-19 63t-56 47.5t-94.5 20.5zM1071 892q33 0 56 -23.5t23 -58.5q0 -34 -23 -57.5t-56 -23.5q-16 0 -30 6t-24 17t-16.5 26t-6.5 32q0 35 22.5 58.5t54.5 23.5z" />
    <glyph glyph-name="faI" unicode="&#x641;" horiz-adv-x="647" arabic-form="initial" 
d="M-1 10q-24 1 -40.5 18.5t-16.5 43.5t16.5 44t41.5 18q38 0 70.5 0.5t63 3.5t60 9.5t92.5 29.5q-140 38 -202 89.5t-83.5 111.5t-7.5 122t57 114t110.5 86t152.5 36q64 2 115 -27.5t84.5 -80t47 -115.5t2 -134t-48.5 -135t-105 -118t-169.5 -84t-239.5 -32zM328 623
q-82 -6 -134 -38t-73.5 -75t-12.5 -89t45.5 -80t100.5 -48.5t154 4.5q25 25 35 58t10.5 69.5t-8.5 72.5t-24.5 64.5t-39.5 46t-53 15.5zM221 1011q16 0 30 -6.5t24 -17.5t16.5 -26t6.5 -32t-6.5 -32t-16.5 -26t-24 -17t-30 -6t-30.5 6t-25.5 17.5t-17 26t-6 31.5t6 31.5
t17 26t25.5 18t30.5 6.5z" />
    <glyph glyph-name="faM" unicode="&#x641;" horiz-adv-x="834" arabic-form="medial" 
d="M0 134q15 -1 37 -0.5t47.5 2t51 4t45.5 5t41.5 6t5.5 19.5q-47 39 -69 89t-22.5 101t19 99t55.5 84t88.5 55t118.5 11q61 -7 110.5 -31t83 -59.5t51.5 -78.5t17 -87.5t-22 -88t-80 -91.5q65 -16 107 -24q36 -7 77 -12t72 -3q24 0 41 -18t17 -44t-17 -44t-41 -18
q-49 0 -97.5 7t-96 18.5t-93.5 25t-93 26.5q-30 -12 -83.5 -26.5t-119 -27t-135 -20t-126.5 -3.5q-23 3 -39 20.5t-16 41.5q0 27 19 46t46 16zM392 507q-47 2 -79.5 -18.5t-48.5 -53t-15.5 -71t18.5 -72.5t54.5 -59t92.5 -29q50 17 83 45t49.5 60.5t16.5 66.5t-19 63
t-56.5 47.5t-95.5 20.5zM433 892q33 0 56 -23.5t23 -58.5q0 -34 -23 -57.5t-56 -23.5q-16 0 -30 6t-25 17.5t-17 26t-6 31.5q0 35 23 58.5t55 23.5z" />
    <glyph glyph-name="qafF" unicode="&#x642;" horiz-adv-x="1384" arabic-form="final" 
d="M688 387q5 47 26 90.5t57 75t86 47.5t111 9q62 -7 111 -31t83 -59.5t52 -78.5t16.5 -87.5t-22.5 -88t-80 -91.5q64 -16 107 -24q36 -7 77.5 -12t71.5 -3q25 0 42 -18t17 -44t-17 -44t-42 -18q-43 -1 -96.5 1.5t-112.5 10t-118.5 20.5t-119.5 34q-139 -75 -260.5 -99
t-224.5 -8t-183 65.5t-131 123t-69 166.5t3 194q2 6 16.5 9t33.5 0t31 -8.5t12 -7.5q-7 -98 14.5 -172t64.5 -124.5t103.5 -79.5t132.5 -37.5t151.5 0.5t178.5 40q-69 54 -99.5 111.5t-22.5 137.5zM944 507q-48 2 -80.5 -18.5t-49 -53t-16 -71t18.5 -72.5t54 -59t92 -29
q50 17 83.5 45t50.5 60.5t17 66.5t-19 63t-57 47.5t-94 20.5zM794 946q16 0 30 -6.5t24.5 -18t17 -26t6.5 -31.5t-6.5 -31.5t-17 -26t-24.5 -17.5t-30 -6q-33 0 -56 23.5t-23 57.5q0 17 6 31.5t17 26t25.5 18t30.5 6.5zM984 892q33 0 55.5 -23.5t22.5 -58.5
q0 -34 -22.5 -57.5t-55.5 -23.5q-34 0 -56.5 23.5t-22.5 57.5q0 35 22.5 58.5t56.5 23.5z" />
    <glyph glyph-name="qafI" unicode="&#x642;" horiz-adv-x="647" arabic-form="initial" 
d="M-1 10q-24 1 -40.5 18.5t-16.5 43.5t16.5 44t41.5 18q38 0 70.5 0.5t63 3.5t60 9.5t92.5 29.5q-140 38 -202 89.5t-83.5 111.5t-7.5 122t57 114t110.5 86t152.5 36q64 2 115 -27.5t84.5 -80t47 -115.5t2 -134t-48.5 -135t-105 -118t-169.5 -84t-239.5 -32zM328 623
q-82 -6 -134 -38t-73.5 -75t-12.5 -89t45.5 -80t100.5 -48.5t154 4.5q25 25 35 58t10.5 69.5t-8.5 72.5t-24.5 64.5t-39.5 46t-53 15.5zM30 1064q33 0 56 -23.5t23 -57.5q0 -17 -6.5 -32t-17 -26.5t-25 -18t-30.5 -6.5t-30 6.5t-24.5 18t-17 26.5t-6.5 32t6 31.5t17 26
t25 17.5t30 6zM221 1011q16 0 30 -6.5t24 -17.5t16.5 -26t6.5 -32t-6.5 -32t-16.5 -26t-24 -17t-30 -6t-30.5 6t-25.5 17.5t-17 26t-6 31.5t6 31.5t17 26t25.5 18t30.5 6.5z" />
    <glyph glyph-name="qafM" unicode="&#x642;" horiz-adv-x="834" arabic-form="medial" 
d="M0 134q15 -1 37 -0.5t47.5 2t51 4t45.5 5t41.5 6t5.5 19.5q-47 39 -69 89t-22.5 101t19 99t55.5 84t88.5 55t118.5 11q61 -7 110.5 -31t83 -59.5t51.5 -78.5t17 -87.5t-22 -88t-80 -91.5q65 -16 107 -24q36 -7 77 -12t72 -3q24 0 41 -18t17 -44t-17 -44t-41 -18
q-49 0 -97.5 7t-96 18.5t-93.5 25t-93 26.5q-30 -12 -83.5 -26.5t-119 -27t-135 -20t-126.5 -3.5q-23 3 -39 20.5t-16 41.5q0 27 19 46t46 16zM392 507q-47 2 -79.5 -18.5t-48.5 -53t-15.5 -71t18.5 -72.5t54.5 -59t92.5 -29q50 17 83 45t49.5 60.5t16.5 66.5t-19 63
t-56.5 47.5t-95.5 20.5zM243 946q34 0 56.5 -24t22.5 -58t-22.5 -57.5t-56.5 -23.5q-33 0 -55.5 23.5t-22.5 57.5t22.5 58t55.5 24zM433 892q33 0 56 -23.5t23 -58.5q0 -34 -23 -57.5t-56 -23.5q-16 0 -30 6t-25 17.5t-17 26t-6 31.5q0 35 23 58.5t55 23.5z" />
    <glyph glyph-name="kafF" unicode="&#x643;" horiz-adv-x="1225" arabic-form="final" 
d="M68 211q-14 63 -4.5 106t31.5 69.5t51 37.5t55.5 7.5t45.5 -19t23 -42.5t-13 -66.5t-70 -94.5q26 -114 85 -170.5t134.5 -66.5t155.5 23t148 101t114 169t52 228q3 58 -3 119.5t-14 123.5t-15.5 124.5t-8.5 124.5q-1 32 13.5 51t32 22t33.5 -10t20 -52q27 -125 41 -249
t0 -252q-4 -33 -7 -67t-3.5 -65.5t3 -57.5t15.5 -41q44 -57 102.5 -93.5t139.5 -36.5q23 0 40.5 -18t17.5 -44q0 -25 -17 -43.5t-41 -18.5q-38 0 -79 13t-81 35t-74 49.5t-68 70.5q-55 -140 -130 -215.5t-160.5 -108.5t-174.5 -24t-167.5 55.5t-138 128.5t-84.5 197z
M677 588q-13 4 -38 9t-53 5t-53 -8t-33 -33q-7 -25 3 -38t27 -19t38.5 -7.5t42.5 -2.5t37.5 -4t25.5 -11q23 -19 20 -47t-27 -55q-21 -25 -53 -43t-70 -22.5t-79 9t-79 52.5q-5 5 -7 13.5t-0.5 17t5.5 13t5 4.5q12 -11 32 -21.5t42 -16.5t43.5 -7.5t38.5 2.5q24 5 36.5 11
t14.5 16q2 17 -12.5 22t-31.5 8t-37.5 7t-38.5 12t-32 22t-20 37q-5 20 -2.5 41.5t11.5 42t25.5 38t38.5 28.5q28 13 60.5 19.5t65 5.5t62 -9t50.5 -22q3 -3 1.5 -15.5t-10 -27t-21.5 -23t-28 -3.5z" />
    <glyph glyph-name="kafI" unicode="&#x643;" horiz-adv-x="783" arabic-form="initial" 
d="M-154 959q36 12 90.5 18t122.5 14.5t147 24t162 47.5t168.5 85t168.5 136q15 15 26 12t19 -16t12 -31t0 -29q-12 -43 -48.5 -81.5t-90 -73.5t-119 -65.5t-136 -55.5t-141 -45t-132.5 -34t-112.5 -22t-80.5 -9q-44 -2 -72.5 13.5t-37.5 35.5t2.5 41t51.5 35zM-51 686
q-25 26 -26.5 45t10 31.5t33.5 18t43.5 0t37.5 -22t19 -46.5q1 -23 23.5 -61t50.5 -87t55.5 -106t41.5 -119t6.5 -125.5t-46.5 -123.5q-54 -80 -197 -80q-25 0 -42.5 18.5t-17.5 43.5q0 26 17.5 44t42.5 18q14 0 38 4.5t47.5 13.5t43 23t25.5 33q7 21 1 58t-21 81.5
t-36.5 93t-46.5 94.5t-51 85.5t-51 65.5z" />
    <glyph glyph-name="kafM" unicode="&#x643;" horiz-adv-x="1404" arabic-form="medial" 
d="M126 761q-38 -19 -61.5 -12.5t-31 26.5t1.5 51.5t40 61.5q29 27 91 72t141.5 93.5t171 94t179 75t164 36.5t128.5 -20q10 -5 21.5 -20t14.5 -30.5t-2 -25.5t-26 -11q-117 -1 -215 -26t-179 -62.5t-147 -83t-119 -88.5t-95.5 -78.5t-76.5 -52.5zM0 10q-25 0 -42.5 18
t-17.5 44t17.5 44t42.5 18q33 0 92 3.5t131 11t153.5 20t161 31t152 43.5t128 58t87.5 76t28 97q-2 37 -33 64t-76 44.5t-102 27t-115 11.5q-59 2 -120 -4t-123 -14.5t-124.5 -16t-124.5 -8.5q-31 -2 -50 13t-22 32.5t10 34t51 20.5q231 51 410 52.5t312 -36.5
q80 -20 132 -50t80.5 -64t35.5 -72.5t-5 -81.5q26 -57 56.5 -108t70.5 -92t91.5 -66.5t116.5 -25.5q25 0 41.5 -18t16.5 -44q0 -25 -16.5 -43.5t-41.5 -18.5q-78 0 -137 24.5t-103.5 65.5t-79.5 93.5t-72 122.5q-60 -73 -135 -123.5t-159 -82.5q-126 -46 -303 -73t-415 -27z
" />
    <glyph glyph-name="lamF" unicode="&#x644;" horiz-adv-x="1225" arabic-form="final" 
d="M68 211q-14 63 -4.5 106t31.5 69.5t51 37.5t55.5 7.5t45.5 -19t23 -42.5t-13 -66.5t-70 -94.5q26 -114 85 -170.5t134.5 -66.5t155.5 23t148 101t114 169t52 228q3 58 -3 119.5t-14 123.5t-15.5 124.5t-8.5 124.5q-1 32 13.5 51t32 22t33.5 -10t20 -52q27 -125 41 -249
t0 -252q-4 -33 -7 -67t-3.5 -65.5t3 -57.5t15.5 -41q44 -57 102.5 -93.5t139.5 -36.5q23 0 40.5 -18t17.5 -44q0 -25 -17 -43.5t-41 -18.5q-38 0 -79 13t-81 35t-74 49.5t-68 70.5q-55 -140 -130 -215.5t-160.5 -108.5t-174.5 -24t-167.5 55.5t-138 128.5t-84.5 197z" />
    <glyph glyph-name="lamI" unicode="&#x644;" horiz-adv-x="341" arabic-form="initial" 
d="M114 943q0 57 15.5 81t32 23t32 -25.5t14.5 -72.5q-1 -51 4.5 -111t14 -125t16.5 -132t13 -133q7 -89 1.5 -169t-32 -139.5t-80 -94.5t-145.5 -35q-26 0 -43 18.5t-17 43.5q0 26 17.5 44t42.5 18q14 0 38 4.5t47.5 13.5t43.5 23t26 33q6 21 5.5 74t-4.5 123.5t-11 150.5
t-14 155t-11.5 137t-5.5 95z" />
    <glyph glyph-name="lamM" unicode="&#x644;" horiz-adv-x="426" arabic-form="medial" 
d="M106 943q0 57 14 81t29.5 23t31.5 -25.5t19 -72.5q2 -51 5 -113.5t7 -129t9.5 -135t13.5 -132.5q5 -51 9 -104.5t20.5 -98.5t54 -74t107.5 -28q25 0 42.5 -18t17.5 -44q0 -25 -17 -43.5t-43 -18.5q-69 0 -120 17.5t-90 53.5q-51 -39 -107 -55t-109 -16q-26 0 -43 18.5
t-17 43.5q0 26 17.5 44t42.5 18q48 -1 79.5 8.5t48.5 30.5t22 51t3 70q-3 44 -7.5 104t-9.5 125.5t-10.5 132t-10 124t-7 100.5t-2.5 63z" />
    <glyph glyph-name="meemF" unicode="&#x645;" horiz-adv-x="817" arabic-form="final" 
d="M120 134q12 0 30 3t38 10t39 16t32.5 22t17.5 30t-10 36q-34 35 -44 74t-2.5 78.5t31 76.5t58 66t77.5 47.5t90 19.5q69 2 115 -36t67.5 -96.5t19.5 -125t-26 -119.5q-8 -27 10.5 -46t44.5 -31.5t54 -18.5t45 -6q25 0 42.5 -18t17.5 -44q0 -25 -17 -43.5t-43 -18.5
q-38 0 -78.5 8.5t-76.5 24.5t-65 42t-45 69q-39 -4 -72.5 1t-77.5 19q-14 -50 -42 -79t-65.5 -47.5t-81 -28t-83.5 -9.5q-26 0 -43 18.5t-17 43.5q0 26 17.5 44t42.5 18zM451 522q-55 -13 -86.5 -39.5t-41.5 -60t0 -67t39 -57.5t75 -35.5t109 -0.5q16 20 22.5 47t5.5 57
t-8.5 60.5t-22.5 54t-38.5 36.5t-53.5 5z" />
    <glyph glyph-name="meemI" unicode="&#x645;" horiz-adv-x="641" arabic-form="initial" 
d="M0 134q18 0 49 7.5t59 21.5t43.5 36.5t-4.5 51.5q-33 35 -43.5 74t-3 78.5t31.5 76.5t58 66t77.5 47.5t90.5 19.5q60 2 101 -26t65.5 -72t32 -98.5t-1 -105.5t-30 -90t-54.5 -55q-35 -16 -85.5 -14t-112.5 22q-14 -50 -42 -79t-65.5 -47.5t-81 -28t-84.5 -9.5
q-25 0 -41.5 18.5t-16.5 43.5q0 26 17 44t41 18zM333 522q-55 -13 -87 -39.5t-42 -60t0 -67t39 -57.5t74.5 -35.5t108.5 -0.5q17 19 23.5 46.5t6 57.5t-8.5 60.5t-22.5 53.5t-38 36.5t-53.5 5.5z" />
    <glyph glyph-name="meemM" unicode="&#x645;" horiz-adv-x="688" arabic-form="medial" 
d="M0 134q12 0 30 3t38 10t39 16t32.5 22t17.5 30t-10 36q-34 35 -44 74t-2.5 78.5t31.5 76.5t58 66t77.5 47.5t90.5 19.5q69 2 114.5 -36t67.5 -96.5t20 -125t-27 -119.5q-8 -27 10.5 -46t45 -31.5t54.5 -18.5t45 -6q25 0 42 -18t17 -44q0 -25 -17 -43.5t-42 -18.5
q-38 0 -79 8.5t-77 24.5t-65 42t-45 69q-39 -4 -72.5 1t-76.5 19q-14 -50 -42.5 -79t-66 -47.5t-81 -28t-83.5 -9.5q-26 0 -43 18.5t-17 43.5q0 26 17.5 44t42.5 18zM332 522q-55 -13 -86.5 -39.5t-41.5 -60t0 -67t39 -57.5t74.5 -35.5t108.5 -0.5q16 20 22.5 47t6 57
t-8.5 60.5t-22.5 53.5t-38 36.5t-53.5 5.5z" />
    <glyph glyph-name="noonF" unicode="&#x646;" horiz-adv-x="1195" arabic-form="final" 
d="M81 177q-16 46 -19 86t3.5 67.5t17.5 39.5t23.5 8t29 -30.5t29.5 -81.5q19 -76 66 -133t110.5 -93.5t137 -49.5t143.5 -1.5t130 51.5t97 109q34 65 60 97t41 38t22 -3.5t9 -35.5q14 -23 31 -43t43 -35t60.5 -24t79.5 -9q25 0 42 -18t17 -44q0 -25 -17 -43.5t-42 -18.5
q-27 0 -56.5 7.5t-60 20.5t-59 30t-63.5 46q-33 -74 -81 -117t-107 -69t-127 -35t-137 -2t-135.5 29.5t-122.5 59.5t-99 86.5t-66 110.5zM535 472q32 0 54.5 -23.5t22.5 -58.5q0 -17 -6.5 -32t-16.5 -26t-24 -17t-30 -6q-33 0 -56 23.5t-23 57.5q0 35 23 58.5t56 23.5z" />
    <glyph glyph-name="noonI" unicode="&#x646;" horiz-adv-x="353" arabic-form="initial" 
d="M0 134q12 0 31.5 3.5t39 10.5t38.5 16.5t32 22.5t16 30.5t-13 36.5q-36 44 -45 77t-2 54.5t24.5 33t37.5 12t38.5 -10.5t24.5 -34q8 -27 18 -46.5t18 -38.5t13.5 -40.5t5.5 -51.5q-1 -51 -27 -88.5t-66.5 -62t-89 -36.5t-94.5 -12q-26 0 -43 18.5t-17 43.5q0 26 17.5 44
t42.5 18zM85 730q33 0 56 -23.5t23 -58.5q0 -34 -23 -57.5t-56 -23.5q-16 0 -30 6t-24 17t-16.5 26t-6.5 32q0 35 22.5 58.5t54.5 23.5z" />
    <glyph glyph-name="noonM" unicode="&#x646;" horiz-adv-x="584" arabic-form="medial" 
d="M584 10q-37 0 -79 13.5t-82 36t-74.5 51t-69.5 72.5q-18 -58 -47.5 -87t-67.5 -48t-81.5 -28.5t-82.5 -9.5q-25 0 -41.5 18t-16.5 44t16.5 44t41.5 18q63 -1 99 16t51 47t12.5 67.5t-12.5 76t-23.5 76.5t-22.5 70q-10 33 -7 52t11.5 27.5t22.5 9.5t29.5 -5.5t29.5 -20.5
t22 -33q16 -40 35.5 -83.5t43 -86t52 -81.5t64.5 -68.5t80 -46.5t97 -17q25 0 42.5 -18t17.5 -44q0 -25 -17.5 -43.5t-42.5 -18.5zM90 871q16 0 30.5 -6.5t25 -18t17 -26.5t6.5 -32q0 -34 -23 -57.5t-56 -23.5q-16 0 -30 6t-25 17.5t-17 26t-6 31.5t6.5 32t17 26.5t24.5 18
t30 6.5z" />
    <glyph glyph-name="haaF" unicode="&#x647;" horiz-adv-x="850" arabic-form="final" 
d="M850 10q-46 0 -87 7.5t-73.5 24.5t-54.5 45.5t-39 107.5q-32 -98 -78.5 -134.5t-105.5 -48t-122.5 1.5t-115.5 48.5t-84 92.5t-29 134q3 71 31 129.5t72.5 100t101 64.5t114.5 23q72 0 121.5 -13t82 -34.5t51 -50.5t28 -62t12 -68t3.5 -69t3 -65t9 -54q10 -27 29 -39
t42 -15.5t46.5 -2.5t42.5 1q29 0 44 -19t15 -43t-15 -43t-44 -19zM581 309q-2 84 -35 126t-80.5 56t-101 4t-99.5 -38.5t-76.5 -74t-30.5 -102.5q0 -33 21.5 -63t53.5 -52t69.5 -33.5t72.5 -6t60 32t29 77.5q2 22 13.5 37t27 24t33.5 12t43 1z" />
    <glyph glyph-name="haaI" unicode="&#x647;" horiz-adv-x="921" arabic-form="initial" 
d="M322 59q-31 -18 -71.5 -27t-85.5 -14t-88.5 -6.5t-76.5 -1.5q-29 0 -43.5 19t-14.5 43t14.5 43t43.5 19q38 0 74.5 -0.5t95.5 1.5q-42 52 -54 104.5t-7.5 106.5t23.5 102t68 90q-36 7 -54 6.5t-33.5 1t-25 5.5t-11.5 11t-0.5 22.5t6.5 31t12 25.5t16 10
q119 -4 219.5 -12.5t179.5 -23t136.5 -36t94.5 -52.5q48 -41 72 -90t27.5 -99.5t-12.5 -99.5t-48 -91.5t-78.5 -73.5t-104.5 -45.5t-126.5 -8.5t-147.5 40zM282 161q54 13 86.5 36t52 51.5t24.5 60t-1.5 61t-25 51.5t-47.5 33q-42 15 -81.5 -3t-59.5 -59t-12.5 -100
t64.5 -131zM538 482q24 -64 23 -111.5t-13.5 -90.5t-31.5 -78.5t-46 -75.5q99 12 150.5 39t78.5 63t30 77t-16 77.5t-59.5 63t-115.5 36.5z" />
    <glyph glyph-name="haaM" unicode="&#x647;" horiz-adv-x="884" arabic-form="medial" 
d="M884 10q-32 0 -55 1.5t-39 3.5t-27 5t-33 14q-11 -91 -39.5 -146.5t-73 -90t-105 -46.5t-134.5 -1q-57 8 -108 29.5t-80.5 55.5t-32.5 80.5t36 107.5q2 2 4.5 6t18.5 29q-40 -11 -67.5 -18t-58.5 -13.5t-57.5 -11.5t-36.5 -5q-23 2 -39.5 19.5t-16.5 42.5q0 26 17.5 44
t42.5 18q33 2 73 4t84 8t90.5 19t98.5 40q-27 74 -29.5 125t12 89t43 64t65 41.5t79 21t84.5 1.5q81 -8 124.5 -33t59 -59t7.5 -74.5t-34 -80t-64.5 -73.5t-111.5 -66q66 -15 99 -19t65.5 -5.5t66.5 -2t72 -0.5q25 0 42 -18t17 -44t-17 -44t-42 -18zM460 81q-66 0 -108 -16
t-62.5 -40.5t-15 -54t31.5 -53.5t70.5 -39t107.5 -15q51 0 78.5 16t34.5 42t-2 54t-29 51.5t-47.5 39t-58.5 15.5zM457 244q0 -8 24.5 0.5t53.5 20.5t66.5 29.5t76.5 39.5q27 16 18.5 36t-32.5 33.5t-58 22.5t-69 9t-66.5 -11.5t-48.5 -39.5q-12 -21 -12 -44.5t7.5 -44
t20.5 -35.5t19 -16z" />
    <glyph glyph-name="wawF" unicode="&#x648;" horiz-adv-x="748" arabic-form="final" 
d="M77 -131q68 35 134.5 71t143.5 105q-134 -4 -197 31t-91 91.5t-22.5 127.5t39 141t92.5 131t138 95q79 37 139 34.5t101 -33t64.5 -85.5t28 -125t-11 -150t-56.5 -173q59 -1 99.5 1.5t69.5 2.5q25 0 42 -18t17 -44q0 -25 -17 -43.5t-42 -18.5h-36.5h-56t-67.5 1t-77 3
q-74 -101 -150.5 -155.5t-144.5 -78.5t-120.5 -22t-73.5 17.5t-12 40t67 53.5zM221 440q-42 -54 -57.5 -111t8 -102.5t88.5 -68t183 -9.5q49 71 68 139t15 125.5t-29.5 99t-67.5 51.5t-95.5 -18.5t-112.5 -105.5z" />
    <glyph glyph-name="alefmaqF" unicode="&#x649;" horiz-adv-x="1054" arabic-form="final" 
d="M936 -1q-6 -7 -6.5 -15t3.5 -17q17 -72 6 -127t-41 -93.5t-77 -63t-104.5 -36t-122 -9.5t-129.5 16q-112 23 -191.5 68.5t-128.5 103t-69.5 124t-13.5 133.5t40 131t90.5 115t139 87t186.5 47q34 4 70.5 4.5t73.5 -2.5l1 -4.5t-2 -16.5t-9 -26.5t-14 -27.5t-14.5 -20
t-9.5 -7q-107 -3 -194 -37.5t-146 -87t-83.5 -118t-6 -128.5t83.5 -116t185 -83q24 -6 60 -10.5t77 -5.5t82.5 4.5t76 19.5t57 39.5t23.5 65.5q1 30 -20.5 52t-53.5 38t-70 27t-73 18.5t-64 12t-40 6.5q-41 8 -64 21.5t-32.5 28.5t-9 28.5t7 24t17 16.5t22.5 3
q79 -16 133.5 -26t97.5 -15t79 -7t76.5 -2t92.5 1t126 1q26 0 41.5 -17t17.5 -39t-10 -42t-37 -25q-8 -2 -27.5 -2.5t-40 -1.5t-38 -2t-24.5 -6z" />
    <glyph glyph-name="yaF" unicode="&#x64a;" horiz-adv-x="1054" arabic-form="final" 
d="M936 -1q-6 -7 -6.5 -15t3.5 -17q17 -72 6 -127t-41 -93.5t-77 -63t-104.5 -36t-122 -9.5t-129.5 16q-112 23 -191.5 68.5t-128.5 103t-69.5 124t-13.5 133.5t40 131t90.5 115t139 87t186.5 47q34 4 70.5 4.5t73.5 -2.5l1 -4.5t-2 -16.5t-9 -26.5t-14 -27.5t-14.5 -20
t-9.5 -7q-107 -3 -194 -37.5t-146 -87t-83.5 -118t-6 -128.5t83.5 -116t185 -83q24 -6 60 -10.5t77 -5.5t82.5 4.5t76 19.5t57 39.5t23.5 65.5q1 30 -20.5 52t-53.5 38t-70 27t-73 18.5t-64 12t-40 6.5q-41 8 -64 21.5t-32.5 28.5t-9 28.5t7 24t17 16.5t22.5 3
q79 -16 133.5 -26t97.5 -15t79 -7t76.5 -2t92.5 1t126 1q26 0 41.5 -17t17.5 -39t-10 -42t-37 -25q-8 -2 -27.5 -2.5t-40 -1.5t-38 -2t-24.5 -6zM326 -473q33 0 56 -23.5t23 -57.5q0 -35 -23 -59t-56 -24q-32 0 -55 24t-23 59q0 17 6 31.5t17 26t25 17.5t30 6zM516 -527
q33 0 55.5 -23.5t22.5 -57.5q0 -17 -6.5 -32t-17 -26.5t-24.5 -18t-30 -6.5t-30 6.5t-25 18t-17 26.5t-6 32t6 31.5t17 26t25 17.5t30 6z" />
    <glyph glyph-name="yaI" unicode="&#x64a;" horiz-adv-x="400" arabic-form="initial" 
d="M0 134q12 0 31.5 3.5t39 10.5t38.5 16.5t32 22.5t16 30.5t-13 36.5q-36 44 -45 77t-2 54.5t24.5 33t37.5 12t38.5 -10.5t24.5 -34q8 -27 18 -46.5t18 -38.5t13.5 -40.5t5.5 -51.5q-1 -51 -27 -88.5t-66.5 -62t-89 -36.5t-94.5 -12q-26 0 -43 18.5t-17 43.5q0 26 17.5 44
t42.5 18zM85 -89q33 0 56 -24t23 -59q0 -34 -23 -57.5t-56 -23.5t-56 23.5t-23 57.5q0 35 23 59t56 24zM275 -143q33 0 56 -23.5t23 -57.5q0 -35 -23 -59t-56 -24q-32 0 -55 24t-23 59q0 17 6 31.5t17 26t25 17.5t30 6z" />
    <glyph glyph-name="yaM" unicode="&#x64a;" horiz-adv-x="584" arabic-form="medial" 
d="M584 10q-37 0 -79 13.5t-82 36t-74.5 51t-69.5 72.5q-18 -58 -47.5 -87t-67.5 -48t-81.5 -28.5t-82.5 -9.5q-25 0 -41.5 18t-16.5 44t16.5 44t41.5 18q63 -1 99 16t51 47t12.5 67.5t-12.5 76t-23.5 76.5t-22.5 70q-10 33 -7 52t11.5 27.5t22.5 9.5t29.5 -5.5t29.5 -20.5
t22 -33q16 -40 35.5 -83.5t43 -86t52 -81.5t64.5 -68.5t80 -46.5t97 -17q25 0 42.5 -18t17.5 -44q0 -25 -17.5 -43.5t-42.5 -18.5zM166 -89q33 0 55.5 -24t22.5 -59q0 -34 -22.5 -57.5t-55.5 -23.5q-34 0 -56.5 23.5t-22.5 57.5q0 35 22.5 59t56.5 24zM355 -143
q33 0 56 -23.5t23 -57.5q0 -35 -23 -59t-56 -24q-32 0 -54.5 24t-22.5 59q0 17 6.5 32t16.5 26t24 17t30 6z" />
    <glyph glyph-name=".notdef" horiz-adv-x="902" 
d="M49 10v1380h784v-1380h-784zM77 38h728v1324h-728v-1324zM269 1117q26 23 51 38q50 27 105 27q86 0 137 -43.5t51 -116.5q0 -46 -21.5 -93.5t-82.5 -124.5q-62 -78 -98 -129.5t-36 -100.5q0 -39 19 -120h-10q-31 86 -31 134q0 71 79 210t79 214q0 60 -35 95t-95 35
q-40 0 -73 -17q-27 -15 -39 -25v17zM328 319l56 56q7 7 13 7q4 0 13 -7l55 -57q6 -9 6 -14q0 -8 -7 -15l-54 -60q-11 -11 -13 -11q-7 0 -12 6l-60 70q-4 5 -4 10q0 6 7 15z" />
    <glyph glyph-name=".null" 
 />
    <glyph glyph-name="nonmarkingreturn" horiz-adv-x="682" 
 />
    <glyph glyph-name="space" unicode=" " horiz-adv-x="225" 
 />
    <glyph glyph-name="space" unicode="&#xa0;" horiz-adv-x="225" 
 />
    <glyph glyph-name="exclam" unicode="!" horiz-adv-x="385" 
d="M312 9q-15 -14 -37 -14t-38 13q-22 20 -36.5 48t-16 52t12 41t49.5 21q25 3 42.5 -5t27.5 -22t14.5 -33.5t3.5 -38.5t-7 -36t-15 -26zM210 915q31 -68 45.5 -140.5t23 -148t14.5 -151.5t18 -152q5 -23 -4.5 -43t-26.5 -34t-37 -19t-38 2.5t-31 31t-15 68.5
q-3 73 -11.5 145.5t-21 143.5t-29.5 137.5t-36 125.5q-11 34 3.5 59.5t40.5 34t56 -3.5t49 -56z" />
    <glyph glyph-name="quotedbl" unicode="&#x22;" horiz-adv-x="566" 
d="M122 860q-29 33 -20 68q7 27 31.5 41t52.5 7t50 -24q19 -19 27 -41t6 -49q-6 -35 -25 -67q-16 -25 -40 -48.5t-45 -40.5q-18 -13 -40 -13q-34 0 -55 30q-14 18 -14 39q0 18 7.5 32t21.5 24q9 6 18.5 15.5t24.5 26.5zM371 851q-21 18 -27 33.5t-3 33.5q2 13 9 24.5
t17.5 19.5t24 12t28.5 2q29 -5 50 -19q24 -16 34 -37.5t12 -47.5q-1 -16 -5.5 -33.5t-13.5 -35.5q-12 -26 -32 -52.5t-40 -46.5q-17 -15 -38 -18q-17 -2 -32 3.5t-26 19.5q-17 17 -19 38q-2 17 3.5 32t17.5 25q10 9 18 19.5t22 27.5z" />
    <glyph glyph-name="numbersign" unicode="#" horiz-adv-x="919" 
d="M587 1038q3 29 25 47t51 14q29 -3 46.5 -24t14.5 -50l-27 -261l102 3q28 2 48.5 -17.5t20.5 -47.5q1 -15 -4 -28t-14 -22.5t-22 -15.5t-27 -7l-119 -3l-21 -206l98 3q28 2 49 -17.5t22 -48.5t-19 -49.5t-48 -21.5l-117 -3l-30 -293q-4 -29 -25.5 -47.5t-50.5 -15.5
t-46.5 25.5t-14.5 50.5l29 275l-165 -5l-30 -289q-4 -29 -25 -46.5t-49 -14.5q-29 3 -47.5 25.5t-13.5 50.5l28 270l-83 -2q-29 -1 -50 18.5t-22 47.5q-1 29 18.5 49.5t48.5 22.5l102 2l21 206l-80 -2q-28 -2 -48.5 17.5t-21.5 48.5t18.5 49.5t47.5 21.5l99 2l29 279
q3 28 25.5 46t50.5 14q29 -3 46.5 -24t14.5 -50l-27 -260l163 4zM358 411l164 5l21 206l-163 -5z" />
    <glyph glyph-name="dollar" unicode="$" horiz-adv-x="945" 
d="M356 -61q-56 11 -100.5 31.5t-82.5 48.5t-68.5 62t-47.5 70q-7 14 -7 31q0 19 10.5 35.5t28.5 25.5q15 6 29 6q20 0 37 -9.5t26 -28.5q23 -48 72.5 -83.5t120.5 -51.5l46 380q-66 21 -118.5 42t-91.5 49.5t-62.5 67.5t-23.5 95q0 28 8 61q14 75 46 130t78 91t104 55.5
t135 26.5l7 50q4 29 26 46.5t51 13.5q29 -3 46 -25.5t13 -51.5l-4 -34q77 -9 134 -36t92 -79q18 -28 26.5 -58.5t8.5 -62.5q0 -47 -17 -89q-11 -27 -37 -38.5t-52 -0.5t-37 37t-2 51q9 21 9 42q0 25 -12 42.5t-31.5 28.5t-42.5 18t-56 10l-46 -384q61 -20 108.5 -42
t82.5 -50.5t55.5 -67t20.5 -91.5q0 -37 -13 -85q-17 -69 -49 -118t-74 -82.5t-93 -52.5t-114 -27l-6 -54q-3 -29 -26 -46.5t-51 -13.5q-29 3 -46.5 25.5t-13.5 51.5zM264 743q-4 -27 7 -49.5t34 -39t54 -30t78 -28.5l42 341q-53 -8 -85 -20.5t-58 -35t-43 -56t-29 -82.5z
M694 253q6 30 -1.5 53t-25.5 42.5t-44.5 34.5t-68.5 31l-42 -338q73 17 117 57.5t65 119.5z" />
    <glyph glyph-name="Apercent" unicode="%" horiz-adv-x="731" 
d="M72 163q16 45 49.5 104.5t76.5 125.5t92 135.5t95.5 134t87 121t67.5 96.5q12 19 31.5 27t40.5 6t38.5 -12t24 -27.5t0.5 -42.5t-35 -58q-31 -36 -71 -90t-83.5 -118t-88 -133.5t-83.5 -134t-70 -119.5t-48 -92q-10 -21 -26 -31.5t-32.5 -12t-32.5 6t-26.5 23t-13.5 38.5
t7 53zM620 113q-10 -11 -22.5 -16.5t-26.5 -5.5t-28 5t-25 14q-28 29 -46.5 67.5t-20.5 73t16 60t66 30.5q33 3 55.5 -8.5t36.5 -32t20 -47.5t4.5 -54t-9.5 -50t-20 -36zM221 656q-21 -21 -51 -22t-53 21q-27 28 -45.5 66t-20 73t16.5 60t65 30q33 3 55.5 -8.5t36.5 -31.5
t20 -47.5t4.5 -54.5t-9.5 -50t-19 -36z" />
    <glyph glyph-name="Apercent" unicode="&#x66a;" horiz-adv-x="731" 
d="M72 163q16 45 49.5 104.5t76.5 125.5t92 135.5t95.5 134t87 121t67.5 96.5q12 19 31.5 27t40.5 6t38.5 -12t24 -27.5t0.5 -42.5t-35 -58q-31 -36 -71 -90t-83.5 -118t-88 -133.5t-83.5 -134t-70 -119.5t-48 -92q-10 -21 -26 -31.5t-32.5 -12t-32.5 6t-26.5 23t-13.5 38.5
t7 53zM620 113q-10 -11 -22.5 -16.5t-26.5 -5.5t-28 5t-25 14q-28 29 -46.5 67.5t-20.5 73t16 60t66 30.5q33 3 55.5 -8.5t36.5 -32t20 -47.5t4.5 -54t-9.5 -50t-20 -36zM221 656q-21 -21 -51 -22t-53 21q-27 28 -45.5 66t-20 73t16.5 60t65 30q33 3 55.5 -8.5t36.5 -31.5
t20 -47.5t4.5 -54.5t-9.5 -50t-19 -36z" />
    <glyph glyph-name="ampersand" unicode="&#x26;" horiz-adv-x="942" 
d="M814 59q23 -25 23 -50q0 -14 -5.5 -26.5t-16.5 -22.5q-21 -20 -48 -20q-29 0 -49 22q-12 11 -24 25q-12 12 -27 29t-41 46q-63 -64 -127 -100.5t-131 -36.5q-72 0 -131 15t-100.5 47t-64 82.5t-22.5 123.5q0 30 3 61q6 42 23.5 79.5t44.5 71t61 64t80 63.5
q-48 81 -74 145.5t-22 110.5q3 36 14 75.5t30 70.5q46 81 120 117.5t156 36.5q57 0 106.5 -20.5t84.5 -61.5q57 -67 57 -170q0 -57 -21 -103t-58.5 -85t-88.5 -76.5t-120 -79.5q46 -61 88 -113.5t93 -109.5q33 46 54.5 81.5t36.5 62.5q19 31 32 60q10 19 26 28.5t36 9.5
q17 0 31 -6q18 -10 27.5 -26t9.5 -35q0 -16 12 11q0 -6 -20.5 -45t-40 -72.5t-46.5 -76.5t-67 -95q47 -55 71.5 -80.5t24.5 -26.5zM540 160q-52 62 -101 124t-102 134q-62 -47 -101 -90.5t-46 -89.5q-3 -25 -3 -48q0 -40 12 -66t36 -39.5t57 -17.5t76 -4t84 26t88 71z
M304 777q-2 -31 14.5 -72t51.5 -100q49 33 86 58t67 49.5t50 49t22 47.5q4 27 -2.5 58.5t-20.5 49.5t-37 26t-49 8q-46 0 -89 -20t-67 -63q-13 -21 -18.5 -42.5t-7.5 -48.5z" />
    <glyph glyph-name="quotesingle" unicode="'" horiz-adv-x="321" 
d="M122 860q-29 33 -20 68q7 27 31.5 41t52.5 7t50 -24q19 -19 27 -41t6 -49q-6 -35 -25 -67q-16 -25 -40 -48.5t-45 -40.5q-18 -13 -40 -13q-34 0 -55 30q-14 18 -14 39q0 18 7.5 32t21.5 24q9 6 18.5 15.5t24.5 26.5z" />
    <glyph glyph-name="parenleft" unicode="(" horiz-adv-x="529" 
d="M368 1168q17 15 43 15q30 0 51 -22q17 -18 17 -46q0 -30 -4 -34q0 2 -25.5 -24t-51 -58.5t-57.5 -80t-60.5 -108t-52.5 -134t-35 -160.5q-2 -23 -3.5 -45.5t-1.5 -43.5q0 -71 12 -133.5t30 -113.5t39.5 -91t40 -67.5t40 -52.5l21.5 -25q1 -1 1 -28q0 -29 -22 -50
q-21 -17 -48 -17q-29 0 -47 19l-16 19t-38.5 52.5t-49.5 81.5t-49 110t-37 137t-15 159q0 51 7 105q12 98 39 183t61.5 155.5t71 125.5t66.5 92.5t51.5 59t21.5 20.5z" />
    <glyph glyph-name="parenright" unicode=")" horiz-adv-x="523" 
d="M170 1067q-17 24 -17 47q0 15 6 29t19 24q20 16 44 16q15 0 28.5 -6.5t42.5 -37.5q0 -4 6 -12t27.5 -43t47.5 -85t48 -112t36.5 -134.5t14.5 -151.5q0 -23 -1.5 -45t-4.5 -46q-10 -89 -36 -171.5t-59.5 -154.5t-68 -132t-64.5 -101.5t-40.5 -54t-10.5 -14.5
q-39 -44 -70 -44q-24 0 -45 17q-23 20 -23 51q0 26 17 46q64 77 118 169q23 40 46 86t43.5 97t35.5 107t22 115q2 19 3 37.5t1 37.5q0 67 -12.5 128t-30.5 113t-39.5 94t-41 72t-31 44.5z" />
    <glyph glyph-name="asterisk" unicode="*" horiz-adv-x="558" 
d="M154 694q-15 -9 -35 -9q-18 0 -33.5 8.5t-25.5 24.5t-10 36q0 17 8.5 33t26.5 25l80 49l-78 59q-14 11 -20.5 25.5t-6.5 30.5q0 21 14 41q11 13 25 19.5t30 6.5q23 0 41 -14l65 -49l9 68q4 28 26 45t51 13q29 -3 45.5 -25.5t12.5 -51.5l-5 -44l26 14q16 10 34 10t34 -8.5
t25 -25.5q10 -16 10 -36q0 -17 -8 -32.5t-25 -24.5l-59 -36l70 -53q14 -10 20.5 -24.5t6.5 -30.5q0 -22 -14 -42q-21 -26 -54 -26q-24 0 -42 14l-60 44l-8 -68q-4 -29 -26 -46t-51 -13t-46 26.5t-13 50.5l4 42z" />
    <glyph glyph-name="plus" unicode="+" horiz-adv-x="782" 
d="M313 269h-193q-29 -1 -49.5 19t-19.5 49q-1 29 19 49t49 21h211l27 249q3 28 25.5 46.5t50.5 14.5q29 -3 46.5 -25t14.5 -51l-27 -234h195q29 1 49 -19t21 -49q0 -29 -19.5 -49t-48.5 -21h-212l-28 -249q-3 -29 -24.5 -46.5t-51.5 -14.5q-28 3 -46 25t-14 51z" />
    <glyph glyph-name="comma" unicode="," horiz-adv-x="260" 
d="M131 27q-40 9 -52 22t-15 28.5t2.5 31.5t18 28t30.5 16.5t40 -3.5q20 -8 35.5 -24t17.5 -41t-14.5 -59.5t-63.5 -77.5q-10 -10 -16 -22.5t-11.5 -21.5t-12 -12.5t-18.5 0.5q-15 4 -18.5 11.5t-0.5 18.5t11.5 25t20 27t22 24t24.5 29z" />
    <glyph glyph-name="hyphen" unicode="-" horiz-adv-x="416" 
d="M84 152q-14 0 -24 9.5t-9 23.5q-1 15 9 24.5t24 9.5l248 1q14 1 23.5 -8.5t10.5 -23.5q0 -14 -9.5 -24t-22.5 -10z" />
    <glyph glyph-name="hyphen" unicode="&#xad;" horiz-adv-x="416" 
d="M84 152q-14 0 -24 9.5t-9 23.5q-1 15 9 24.5t24 9.5l248 1q14 1 23.5 -8.5t10.5 -23.5q0 -14 -9.5 -24t-22.5 -10z" />
    <glyph glyph-name="period" unicode="." horiz-adv-x="276" 
d="M199 11q-17 -16 -42.5 -16t-43.5 15q-25 23 -42 55.5t-19 60t13.5 47t57.5 24.5q29 3 49 -5.5t31.5 -25t17 -39t4 -45t-8 -42t-17.5 -29.5z" />
    <glyph glyph-name="slash" unicode="/" horiz-adv-x="938" 
d="M176 -47q-10 -15 -25.5 -23.5t-31.5 -8.5q-18 0 -37 11q-16 11 -24 26.5t-8 32.5q0 20 10 34q19 20 56 73t86 128t106 165t115.5 181t114.5 177.5t102.5 155t79.5 111t47 50.5q22 22 52 22q27 0 47 -18q11 -11 16.5 -23.5t5.5 -26.5q0 -12 -5 -24.5t-15 -23.5z" />
    <glyph glyph-name="zero" unicode="0" horiz-adv-x="927" 
d="M192 820q7 31 16 54.5t21 42.5q24 43 57 72.5t71 47.5t81 26.5t86 8.5q84 0 154.5 -44t116.5 -119q40 -67 61 -150t21 -171q0 -23 -1.5 -45.5t-3.5 -44.5q-14 -124 -62 -233q-31 -71 -75 -130t-96 -101.5t-110 -66.5t-119 -24q-85 0 -156 44t-119 119q-40 65 -62.5 146
t-22.5 176q0 92 23 181.5t63 171.5q8 17 20.5 26.5t35.5 12.5zM321 751q-3 -27 -22.5 -45.5t-53.5 -17.5q-30 -66 -43.5 -130.5t-13.5 -129.5q0 -73 16.5 -136t47.5 -111q30 -46 68.5 -73t89.5 -27q40 0 80 18t75.5 49.5t66 76t52.5 97.5q20 45 32.5 92.5t19.5 97.5
q3 18 4 35.5t1 37.5q0 68 -16 135t-46 114q-28 46 -67 73.5t-88 27.5q-53 0 -100.5 -19.5t-75.5 -66.5q-13 -24 -18.5 -46.5t-8.5 -51.5z" />
    <glyph glyph-name="one" unicode="1" horiz-adv-x="573" 
d="M119 -40q-29 0 -49 20.5t-20 48.5q0 29 20 49t49 20h103l99 746l-125 -84q-17 -11 -38 -11q-16 0 -30.5 8t-26.5 23q-11 17 -11 38q0 17 8 32t22 25l253 168q7 6 16 8t18 2q16 0 29 -5.5t23 -16.5t16 -25t3 -30l-119 -878h96q28 0 48 -20t20 -49q0 -28 -20 -48.5
t-48 -20.5h-336z" />
    <glyph glyph-name="two" unicode="2" horiz-adv-x="832" 
d="M248 774q1 -29 -18.5 -51.5t-48.5 -23.5q-28 -1 -48.5 18.5t-21.5 48.5q2 79 29 133t80 90q92 64 249 70q96 0 154 -25.5t94 -70.5q32 -38 48.5 -86t16.5 -101q0 -62 -21.5 -118.5t-61.5 -115.5q-28 -40 -64 -80.5t-75 -80t-81.5 -76t-81.5 -69.5q-33 -30 -61.5 -55.5
t-75.5 -66.5q86 6 139 6q61 0 114 -3t92 -7q47 -4 86 -8q28 -3 45 -26t15 -51q-4 -29 -26.5 -46t-41.5 -14l-26 2.5t-62.5 6.5t-86 6t-105.5 2q-66 0 -134.5 -4t-137.5 -16q-18 -4 -34.5 3t-27.5 20.5t-15 31.5t1 35q14 38 37.5 72t56 68.5t72.5 70.5t86 76q32 27 70 61.5
t77 71.5t74 74.5t58 71.5q29 42 43.5 79t14.5 79q0 59 -34 98q-17 23 -46.5 35t-88.5 12q-117 -3 -177 -46q-24 -17 -37 -44t-13 -57z" />
    <glyph glyph-name="three" unicode="3" horiz-adv-x="799" 
d="M227 859q-10 -17 -25.5 -25.5t-33.5 -8.5q-19 0 -35 8q-16 10 -25 26t-9 33q0 20 9 36q25 37 68 68q36 26 96 49t148 25q79 3 148.5 -26.5t110.5 -83.5q30 -40 46 -87.5t16 -96.5q0 -21 -4 -45q-7 -55 -39 -107t-84 -100q65 -49 100 -107.5t35 -127.5q-2 -37 -10 -75
t-23 -71q-39 -86 -119 -137t-196 -54q-39 -2 -73.5 6t-65.5 21.5t-58 31t-50 35.5q-52 43 -92 99q-12 17 -12 39q0 17 7.5 30.5t22.5 25.5q18 11 38 11q17 0 31.5 -7.5t25.5 -21.5q27 -38 61 -68q30 -25 71 -45.5t90 -19.5q72 2 121 31.5t73 79.5q10 24 15 45.5t5 48.5
q0 26 -12 49t-31 42.5t-42 34t-49 26.5q-30 -9 -63 -9q-9 0 -16.5 0.5t-15.5 1.5q-42 4 -87 30q-16 9 -24 24.5t-8 32.5q0 23 13 42.5t38 25.5q17 5 34 7t34 2q46 0 92 -12q24 13 44 30.5t37.5 37.5t31 43.5t15.5 46.5q5 31 -3.5 66t-28.5 62q-23 30 -62 44t-81 11
q-59 -2 -96.5 -13.5t-61.5 -23.5q-27 -16 -42 -36z" />
    <glyph glyph-name="four" unicode="4" horiz-adv-x="810" 
d="M551 732q4 29 25.5 47t49.5 16q28 -3 46.5 -24.5t15.5 -49.5l-24 -259l16 8h3q29 3 51 -15.5t23 -47.5q3 -29 -15.5 -50.5t-46.5 -24.5q-2 0 -43 -4l-29 -312q-1 -29 -23.5 -46.5t-50.5 -15.5q-29 3 -46.5 24.5t-15.5 49.5l27 294h-66q-70 0 -143.5 4.5t-132 16.5
t-90.5 32.5t-28 51.5q2 15 22 50.5t51 83t69.5 102.5t77.5 111t77.5 107t68.5 90.5t49 65l19 25.5q9 11 23 17.5t30 6.5q23 0 41 -14q28 -22 28 -55q0 -23 3 -20q0 2 -24.5 -29t-50.5 -64t-59 -75.5t-67.5 -87.5t-68 -89t-60 -81.5t-44 -65t-20.5 -38.5q-3 -13 16.5 -19
t46 -10t60.5 -6.5t73 -2.5q26 0 50.5 1.5t57.5 4.5z" />
    <glyph glyph-name="five" unicode="5" horiz-adv-x="836" 
d="M296 1080q16 -3 28.5 -13.5t23.5 -30.5l365 16q27 2 49 -17.5t23 -46.5q1 -29 -18.5 -50t-47.5 -22l-392 -19q-13 -64 -24.5 -122.5t-24.5 -128.5q56 21 99.5 31.5t86.5 10.5q66 0 125.5 -26t100.5 -78q32 -41 48 -100t16 -124q0 -18 -1.5 -36t-3.5 -36q-13 -78 -52 -140
t-95.5 -105t-124.5 -66t-136 -23q-71 0 -124 27t-87 60q-42 38 -71 87q-9 16 -9 33q0 19 10 35t27 25q16 9 33 9t33.5 -9.5t43.5 -65.5q0 11 1.5 8.5t21.5 -21t50 -35t71 -16.5q47 0 94 14t84.5 42t63.5 68.5t30 94.5q1 11 1.5 22.5t0.5 23.5q0 39 -7 78.5t-26 63.5
q-22 27 -52.5 40t-65.5 13q-43 0 -86 -14t-77 -30q-40 -19 -79 -44q-9 -6 -18 -8t-19 -2q-14 0 -28.5 6t-24.5 17t-15 26t-1 32l6.5 31.5t16 82t22 112t24.5 131.5q-27 9 -40.5 26t-15.5 39q-1 15 4 28t13.5 22.5t21 15t27.5 6.5h19q10 31 33.5 44t48.5 8z" />
    <glyph glyph-name="six" unicode="6" horiz-adv-x="804" 
d="M501 1089q20 16 44 16q14 0 28 -6t24 -19q17 -21 17 -44q0 -15 -6.5 -28.5t-19.5 -23.5q-48 -38 -90.5 -79.5t-81.5 -84.5q-46 -53 -83 -105.5t-84 -147.5q73 58 119.5 79t102.5 21q73 0 131.5 -35.5t93.5 -94.5q29 -47 43.5 -101t14.5 -108q0 -81 -23.5 -152t-69.5 -124
t-113 -83.5t-156 -30.5q-82 0 -145 26.5t-107 74.5t-67 114.5t-23 146.5q0 166 69.5 318t193.5 293q44 49 90 92t98 86zM188 300q0 -103 48.5 -163.5t155.5 -60.5q59 0 101.5 19.5t70 53.5t40.5 80t13 99q0 35 -9.5 70.5t-26.5 65.5q-20 30 -47.5 47.5t-62.5 17.5
q-45 0 -82.5 -25.5t-65.5 -57.5q-32 -37 -59 -83q-10 -19 -28 -28.5t-48 -5.5v-29z" />
    <glyph glyph-name="seven" unicode="7" horiz-adv-x="836" 
d="M256 404q-28 1 -47.5 22t-18.5 49q0 14 6 26t15.5 21.5t22 14.5t27.5 5l140 -5q43 68 74 116t54.5 87t38.5 71t23 60q5 26 -28.5 33t-81.5 7q-34 0 -74 -2t-79.5 -6t-76.5 -9t-65.5 -8.5t-40 -5t-11.5 -3.5q-39 -1 -60 18.5t-23 47.5q-1 29 18 49.5t58 23.5l33 4t92.5 9
t131.5 9t143 4q56 0 106 -3t85.5 -12.5t51.5 -22t11 -30.5q-6 -27 -27.5 -76t-52 -107.5t-66 -122.5t-78.5 -136h39q27 -1 47 -22t19 -49q-1 -29 -21.5 -48.5t-49.5 -18.5l-117 4q-57 -91 -108.5 -169.5t-92.5 -138.5t-57 -83.5t-16 -24.5q-29 -41 -43.5 -48.5t-31.5 -7.5
q-21 0 -38 12q-15 12 -22.5 25.5t-7.5 30.5q0 22 13 43l19 27t51.5 75.5t75.5 112.5t99 151z" />
    <glyph glyph-name="eight" unicode="8" horiz-adv-x="818" 
d="M233 568q-18 16 -26.5 25.5t-16.5 18.5q-69 86 -59 197q6 52 24 102.5t59 91.5q41 40 105 65.5t162 25.5q48 0 91 -13t78.5 -37.5t63 -59.5t40.5 -79q14 -41 14 -86t-14 -93q-16 -57 -54 -112.5t-110 -119.5q35 -31 58 -58.5t37.5 -58t22 -63.5t4.5 -69
q-5 -53 -24.5 -106.5t-61.5 -99.5q-42 -44 -109.5 -71.5t-169.5 -27.5q-50 0 -96.5 12.5t-83.5 37.5t-64.5 62t-39.5 85q-13 41 -13 82q0 24 4 49t11 50q17 63 57 125.5t111 124.5zM338 495q-11 -27 -24 -41q-48 -39 -76 -83.5t-41 -88.5q-9 -36 -9 -63q0 -22 5 -46
q15 -52 58.5 -73.5t95.5 -21.5q70 0 113.5 15.5t66.5 41.5q25 24 34.5 57t12.5 66q0 36 -17 67t-44 57.5t-62.5 49.5t-74.5 43q-8 4 -14.5 7.5t-23.5 12.5zM437 598q9 -5 17.5 -9.5l25.5 -13.5q12 17 21 24q51 43 80 84.5t43 81.5q7 26 7 53q0 26 -7 45q-15 46 -54.5 69.5
t-88.5 23.5q-67 0 -106.5 -13.5t-63.5 -36.5q-21 -23 -31 -50.5t-12 -58.5q-3 -29 5 -53.5t25 -45.5q41 -52 139 -100z" />
    <glyph glyph-name="nine" unicode="9" horiz-adv-x="821" 
d="M738 689q-32 -141 -59.5 -234t-72 -193t-107 -202t-145.5 -193q-20 -21 -51 -21q-26 0 -46 17q-22 21 -22 51q0 28 18 47q79 85 137 181t109 221q-50 -32 -78.5 -41t-58.5 -9q-70 0 -135 27t-109 83q-32 39 -50 91.5t-18 118.5q0 67 16.5 129t47 115t72.5 93.5t91 64.5
q42 20 90 31t94 11q32 0 64.5 -6.5t64 -18t58.5 -28t47 -35.5q29 -26 46.5 -57.5t17.5 -60.5zM628 819q0 34 -16 56.5t-40.5 36t-54 21t-56.5 7.5q-30 0 -63.5 -7.5t-60.5 -21.5q-35 -17 -62.5 -46t-46.5 -65.5t-29.5 -79t-10.5 -87.5q0 -42 10 -72t27 -51q24 -31 61 -45
t76 -14q37 0 69.5 27t60.5 66t51 84.5t39.5 84t26.5 65l10 26.5q4 9 9 15z" />
    <glyph glyph-name="colon" unicode=":" horiz-adv-x="256" 
d="M129 183q16 0 30 -6t24 -17t16.5 -26.5t6.5 -32.5t-6.5 -32t-16.5 -26t-24 -17t-30 -6t-30.5 6t-25.5 17.5t-17 26t-6 31.5t6.5 32t17 26.5t25 17.5t30.5 6zM129 427q16 0 30 -6.5t24 -17.5t16.5 -26.5t6.5 -32.5t-6.5 -32t-16.5 -26t-24 -17t-30 -6q-33 0 -56 23.5
t-23 57.5q0 17 6.5 32t17 26.5t25 18t30.5 6.5z" />
    <glyph glyph-name="semicolon" unicode=";" horiz-adv-x="279" 
d="M143 409q-15 0 -28.5 6t-24 16.5t-16 25.5t-5.5 32q0 16 5.5 30t16 24.5t24 16.5t28.5 6q16 0 29.5 -6t23.5 -16.5t16.5 -24.5t6.5 -30q0 -34 -22.5 -57t-53.5 -23zM148 189q-46 -4 -63.5 6.5t-26 27t-7.5 37t11 38t28.5 28.5t45.5 9q25 -2 48 -15.5t34 -40.5t4 -71
t-45 -106q-9 -15 -11 -31t-4.5 -27.5t-8.5 -17.5t-21 -6q-19 0 -25.5 7t-7.5 20.5t4 32.5t13 37t15.5 33.5t16.5 38.5z" />
    <glyph glyph-name="semicolon" unicode="&#x37e;" horiz-adv-x="279" 
d="M143 409q-15 0 -28.5 6t-24 16.5t-16 25.5t-5.5 32q0 16 5.5 30t16 24.5t24 16.5t28.5 6q16 0 29.5 -6t23.5 -16.5t16.5 -24.5t6.5 -30q0 -34 -22.5 -57t-53.5 -23zM148 189q-46 -4 -63.5 6.5t-26 27t-7.5 37t11 38t28.5 28.5t45.5 9q25 -2 48 -15.5t34 -40.5t4 -71
t-45 -106q-9 -15 -11 -31t-4.5 -27.5t-8.5 -17.5t-21 -6q-19 0 -25.5 7t-7.5 20.5t4 32.5t13 37t15.5 33.5t16.5 38.5z" />
    <glyph glyph-name="less" unicode="&#x3c;" horiz-adv-x="970" 
d="M831 744q19 6 45 -6t35 -39q9 -26 -3 -52t-26 -31l-35.5 -13t-80.5 -29.5t-102.5 -37.5t-117 -44t-116.5 -45.5t-102 -41.5t-75 -33.5t-30 -24.5t28.5 -21t70.5 -25.5t95 -31t108.5 -33t109 -32.5t95 -28t74.5 -20.5l33 -8.5q14 -4 28 -28.5t7 -52.5q-8 -28 -32.5 -42
t-43.5 -9l-35.5 10t-88 25.5t-119.5 36.5t-136.5 46.5t-136 53t-117.5 55.5t-81.5 55t-30.5 48q-1 22 30.5 50.5t85.5 61.5t123.5 67.5t142.5 66t143 59t125 48.5t92.5 33.5z" />
    <glyph glyph-name="equal" unicode="=" horiz-adv-x="691" 
d="M120 405q-29 -1 -49.5 19.5t-19.5 48.5q-1 29 19 49t49 21l452 2q28 2 48 -18.5t22 -49.5q0 -28 -20 -48t-48 -21zM120 188q-29 -1 -49.5 19t-19.5 49q-1 28 19 48t49 21l452 3q28 1 48 -19t22 -49q0 -28 -20.5 -48t-47.5 -22z" />
    <glyph glyph-name="greater" unicode="&#x3e;" horiz-adv-x="970" 
d="M159 30q-40 -14 -65.5 -1.5t-33.5 39.5q-10 27 2 53t46 35q0 1 25.5 10.5t71.5 26t104.5 38t119.5 44.5t119 45t103.5 41t76.5 33.5t31 24.5t-29 21.5t-72 26t-97 30.5t-111 33t-111 33t-97 27.5t-66 18l-23 6.5q-34 9 -48.5 34t-6.5 52t32 41.5t64 3.5l25.5 -7.5
t78 -22.5t119.5 -36t136 -46.5t136 -53t118 -55.5t81.5 -55t31.5 -48q0 -21 -31.5 -50.5t-85.5 -62t-123.5 -66t-142.5 -66t-143 -60t-125 -48t-82.5 -30z" />
    <glyph glyph-name="question" unicode="?" horiz-adv-x="730" 
d="M200 737q12 -11 18.5 -25t6.5 -31q0 -22 -15 -42q-20 -25 -54 -25q-24 0 -43 14q-30 25 -46.5 67t-16.5 94q0 49 17 99t49 92q36 46 96 76t147 30q84 0 155.5 -33.5t113.5 -95.5q27 -43 39.5 -94t12.5 -107q0 -86 -27 -152.5t-71.5 -122t-103 -101t-132.5 -96.5
q23 -22 26.5 -41.5t-4.5 -39.5q-11 -26 -37 -37t-53 0q-50 21 -72 46t-22 54q0 11 3 22.5t7 23.5q15 35 50 64.5t83 62.5q47 33 86 65t68 68.5t45 81.5t16 102q0 37 -6.5 69t-23.5 57q-23 36 -64.5 51t-88.5 15q-49 0 -82.5 -15.5t-54.5 -39.5q-34 -46 -34 -104
q0 -45 12 -52zM232 -65q-28 3 -46 25t-14 50q3 29 25 47t51 14l45 -6q28 -3 45.5 -25t13.5 -50q-1 -14 -8 -25.5t-17 -20t-23 -13t-28 -1.5z" />
    <glyph glyph-name="at" unicode="@" horiz-adv-x="976" 
d="M662 207q-18 0 -33.5 5t-27.5 17q-8 8 -13.5 23t-8.5 41q-22 -28 -40 -44.5t-35 -25.5q-18 -12 -42 -16t-50 -1h1q-53 4 -89 26.5t-58.5 57.5t-32.5 79t-10 92q0 63 23 118.5t64 96.5t97.5 65t123.5 24q57 0 85 -22q11 -8 22.5 -22t24.5 -37q0 2 0.5 2.5t0.5 1.5t1 2
q7 20 14.5 24t20.5 4q9 0 17.5 -3t15.5 -9t10 -14t1 -18q-1 -3 -2 -7t-2.5 -8.5t-3.5 -9.5l-56 -171v1q-15 -49 -24 -91t-10 -76q0 -25 14 -25t25 4.5t22 9.5l1 1q28 20 52 52t42 70.5t28 80.5t10 82q0 57 -17 103t-46 80q-24 23 -55 40.5t-65.5 29t-70.5 17.5t-70 6
q-77 0 -145.5 -31t-120.5 -84t-85 -123.5t-39 -149.5q1 -63 24 -130t64 -123t98 -92t125 -36q46 0 97 9.5t98.5 25t86.5 35t62 40.5h-1q12 12 28.5 10.5t27.5 -14.5q12 -14 11 -30.5t-14 -27.5q-24 -22 -69.5 -45t-101 -41.5t-115 -30.5t-111.5 -12q-85 0 -156.5 42.5
t-123.5 109.5t-81.5 149t-29.5 162q5 97 44.5 182t103 149t147 101t176.5 37q44 0 89 -7.5t87 -22.5t79.5 -37.5t65.5 -52.5q42 -43 63.5 -102.5t21.5 -135.5q0 -62 -15.5 -121.5t-44 -110t-68 -88t-87.5 -53.5q-10 -4 -22 -5.5t-23 -1.5zM542 370q26 37 45 84.5t36 101.5
q-20 6 -26 17t-4 23v-1q-1 40 -23 62.5t-67 24.5q-44 -6 -80.5 -27t-62.5 -51t-41 -67t-15 -76q0 -30 4 -59.5t16.5 -53.5t35 -40.5t58.5 -21.5q38 -5 68 20.5t56 63.5z" />
    <glyph glyph-name="A" unicode="A" horiz-adv-x="835" 
d="M209 -24q-30 -80 -55 -92t-52 -3q-28 9 -40 34.5t-4 54.5q0 -1 12 33t33 91.5t49.5 133t65.5 171.5q-36 9 -51 29t-14 45q3 29 25 47.5t50 16.5l45 -4q45 110 90 206t88.5 171.5t80.5 120t64 44.5q19 0 35.5 -21.5t31 -61t24.5 -94.5t18 -118.5t13.5 -134t8.5 -147.5
q30 -9 44 -29t12 -46q-1 -21 -13.5 -37t-39.5 -25q1 -45 1 -79v-68q0 -84 -1 -137t-1 -54q-1 -29 -21.5 -48.5t-48.5 -18.5t-48.5 21.5t-19.5 49.5l0.5 27t2.5 72.5t3.5 105t2.5 136.5l-246 21q-35 -96 -64 -178.5t-52 -145.5t-26 -71.5t-3 -17.5zM570 891q-15 0 -30.5 -28
t-34.5 -73.5t-43.5 -109.5t-58.5 -156l202 -17q0 25 0.5 38.5t0.5 25.5q0 69 -3.5 126.5t-7.5 98.5t-8.5 68t-16.5 27z" />
    <glyph glyph-name="B" unicode="B" horiz-adv-x="872" 
d="M187 880q-41 -7 -64.5 7t-31.5 42q-7 27 7.5 51t42.5 32q36 9 76.5 18.5t84.5 16.5t88.5 12t87.5 5q23 0 43 -2l40 -4q56 -7 101.5 -24t79 -46.5t52 -72.5t18.5 -104q0 -16 -1.5 -33t-3.5 -36q-9 -61 -30.5 -105.5t-60.5 -84.5q53 -38 79.5 -84.5t26.5 -119.5
q0 -16 -1.5 -31t-3.5 -32q-17 -107 -78 -179t-160 -112q-56 -21 -120 -32.5t-133 -11.5q-31 0 -62.5 2.5t-62.5 6.5q-51 7 -93 19q-28 6 -43 29.5t-9 52.5q5 19 17.5 31.5t36.5 18.5zM245 92q47 -4 83 -4q112 0 199 35q57 24 97.5 63t52.5 97q7 25 7 47q0 58 -37.5 90.5
t-94.5 42.5q-37 -9 -71 -12.5t-65 -3.5q-46 0 -79 4.5t-54 8.5q-11 -97 -17 -155.5t-10.5 -96.5t-6.5 -59.5t-3 -32t-1 -13.5v-11zM295 595q36 5 75 9.5t88 4.5q19 0 39.5 -1t44.5 -3q48 18 83.5 55t46.5 104q6 39 -2 67t-26 47t-44 30t-56 14q-28 4 -59 4q-37 0 -75 -4
t-83 -11z" />
    <glyph glyph-name="C" unicode="C" horiz-adv-x="945" 
d="M845 707q-10 -16 -26 -25t-33 -9q-20 0 -36 10t-24.5 26t-8.5 35q0 18 10 35q12 19 20 38.5t8 37.5q0 32 -33 52q-48 30 -146 28q-40 0 -75 -7t-72 -25q-86 -39 -148.5 -126.5t-82.5 -226.5q-6 -37 -8.5 -71.5t-2.5 -65.5q0 -67 11.5 -120t33.5 -93q56 -101 172 -119
q23 -3 49 -3q65 0 141 22.5t159 65.5q16 9 33 9q18 0 34.5 -9.5t26.5 -26.5q8 -15 8 -32q0 -18 -9.5 -35t-27.5 -26q-99 -53 -191 -79.5t-176 -26.5q-18 0 -35 1.5t-32 4.5q-90 13 -160 60.5t-113 129.5q-29 54 -45 123.5t-16 155.5q0 35 3.5 74t9.5 81q13 88 41.5 161
t68.5 130t90 98.5t108 68.5q46 21 98 33t103 11q70 3 125.5 -9.5t97.5 -38.5q45 -25 70.5 -68t27.5 -94q2 -72 -48 -155z" />
    <glyph glyph-name="D" unicode="D" horiz-adv-x="1002" 
d="M221 870q-14 -7 -31 -7q-19 0 -35.5 10t-24.5 29q-4 8 -6 14.5t-2 15.5q0 19 10.5 35.5t29.5 26.5q80 38 157.5 56t149.5 18q31 0 61 -3q98 -9 176 -50t133.5 -107t84 -150.5t28.5 -178.5q0 -30 -2 -59q-12 -115 -38.5 -202t-63 -151t-84.5 -107.5t-106 -69.5
q-56 -25 -118.5 -36.5t-133.5 -11.5q-68 0 -142 8.5t-152 20.5q-29 6 -45.5 28.5t-12.5 50.5q6 29 28.5 45.5t49.5 11.5q10 -2 24 -2l87 776zM292 86q37 -4 62.5 -5t50.5 -1q56 0 105 7.5t91 27.5q41 20 76 53t62 84t45 121t29 162q2 12 2 25v25q0 67 -20.5 127t-58.5 106
t-94 76t-127 35q-10 1 -20 1.5t-23 0.5q-20 0 -40.5 -1.5t-56.5 -7.5q10 -23 8 -38z" />
    <glyph glyph-name="E" unicode="E" horiz-adv-x="957" 
d="M158 892q-28 -3 -48.5 17.5t-22.5 49.5q-2 27 17.5 47.5t48.5 22.5l79 4l5 24q7 29 31 42.5t53 6.5q20 -6 33.5 -21.5t18.5 -43.5l459 24q28 2 50 -18t23 -49q2 -28 -17.5 -48.5t-48.5 -22.5l-500 -26q-14 -61 -30 -126.5t-34 -150.5l359 22q29 2 51 -17.5t23 -47.5
q1 -15 -4 -28t-13.5 -22.5t-21 -15.5t-26.5 -7l-399 -23q-20 -103 -33 -186.5t-13 -131.5q0 -24 3 -38q10 -21 43 -30t81 -11q42 -1 89 3.5t96 14t98 24t94 32.5q26 11 52 0t38 -38q10 -25 -1 -51.5t-37 -37.5q-51 -22 -107.5 -38t-113.5 -27.5t-111.5 -16.5t-102.5 -3
q-90 5 -154.5 35.5t-89.5 89.5q-1 3 -2 7t-2 6v0q-3 12 -4 26t-1 33q0 57 11 142t31 191q-28 10 -41.5 25.5t-14.5 38.5q-2 28 17.5 49t48.5 23h17q16 79 31 144t30 134z" />
    <glyph glyph-name="F" unicode="F" horiz-adv-x="931" 
d="M138 891q-28 -2 -48.5 18t-21.5 49q-1 28 18.5 48.5t46.5 21.5l42 1l2 23q3 29 25 46.5t51 13.5q27 -3 44 -22t17 -54l495 17q14 1 26.5 -4t22.5 -14t16 -21t6 -26q1 -15 -4 -28t-14 -22.5t-21.5 -15t-26.5 -6.5l-518 -19l-32 -253l309 10q28 1 49 -18.5t22 -47.5
q1 -29 -19 -49.5t-49 -21.5l-328 -11l-58 -486q-4 -29 -26 -46t-51 -14q-29 4 -46 26t-14 51l58 466q-28 11 -40 27.5t-13 38.5q-2 27 16 47t52 24l31 251h-19z" />
    <glyph glyph-name="G" unicode="G" horiz-adv-x="1178" 
d="M612 374q-29 1 -49 22t-18 48q2 28 22.5 48t49.5 19q77 -3 144 -3q65 0 118 2t92 5q45 4 79 6q29 2 51 -16t24 -46q3 -29 -14.5 -50.5t-45.5 -24.5q-1 0 -41.5 -3.5t-114.5 -6.5q-8 -39 -16.5 -83t-18.5 -97t-21.5 -114.5t-23.5 -127.5q-5 -29 -28 -44.5t-52 -10.5
q-22 4 -37.5 20.5t-18.5 54.5q-58 -32 -105 -44.5t-101 -12.5q-139 -2 -231.5 38.5t-145.5 129.5q-60 103 -60 266q0 52 6 109.5t17 123.5q15 80 37 143.5t52 113.5t68.5 91t84.5 76q39 28 80 47t80 30t74.5 15.5t64.5 4.5q58 0 117.5 -10t110.5 -41q50 -28 80 -77.5
t30 -126.5q0 -23 -4 -49q-3 -29 -25.5 -46.5t-50.5 -13.5q-29 3 -46.5 25.5t-13.5 51.5q5 48 -6.5 77t-34.5 43q-32 18 -73.5 23.5t-83.5 5.5q-43 0 -102.5 -14.5t-118.5 -56.5q-35 -28 -63.5 -59t-52 -71t-41 -91t-28.5 -114q-11 -62 -16 -115t-5 -98q0 -125 41 -192
q62 -104 256 -101q40 0 72.5 9t64.5 28q36 21 59.5 50t39 59.5t23.5 59t9 50.5q0 8 2 15t7 16l8 30q-81 0 -157 4z" />
    <glyph glyph-name="H" unicode="H" horiz-adv-x="902" 
d="M713 1034q3 29 25.5 47t50.5 15t45.5 -25t15.5 -51l-47 -443q30 -22 32 -55q0 -21 -11 -38.5t-33 -29.5l-49 -469q-4 -28 -25.5 -46t-50.5 -15t-46.5 25t-14.5 50l46 448l-414 -12l-47 -454q-3 -29 -25 -47t-51 -14q-28 2 -46 24t-15 51l46 440q-21 13 -30.5 28t-10.5 36
q-2 23 12 41.5t43 27.5l48 457q3 29 25 46.5t51 14.5t46.5 -25t14.5 -51l-46 -436l414 12z" />
    <glyph glyph-name="I" unicode="I" horiz-adv-x="786" 
d="M123 -44q-28 -1 -49 18.5t-22 48.5q-2 28 17.5 48.5t48.5 21.5l151 5l98 811l-147 -1q-29 -1 -49.5 19t-20.5 49q0 28 20 48t49 20l195 3q20 8 41 7q12 -2 22 -6l190 2q29 0 49 -19.5t20 -48.5t-20 -49.5t-47 -20.5l-163 -2l-100 -806l131 4q15 1 27.5 -4t21.5 -14
t15.5 -21.5t6.5 -25.5q2 -29 -18 -50.5t-48 -22.5l-168 -5q-25 -22 -55 -18q-19 3 -36 15z" />
    <glyph glyph-name="J" unicode="J" horiz-adv-x="943" 
d="M459 915q-28 0 -48 20t-20 48q0 29 20 48.5t48 19.5h242q13 9 24 13t25 3q19 -1 40 -16h34q29 0 49 -19.5t20 -48.5q0 -28 -20 -48t-49 -20h-16q-4 -54 -9 -117.5t-11.5 -134.5t-13 -145t-14.5 -142.5t-16 -125.5t-15 -93q-15 -68 -65 -123.5t-121 -89.5
q-56 -30 -124 -40q-16 -2 -30.5 -4t-29.5 -2q-35 0 -75 10q-70 13 -129.5 56t-97.5 121q-7 14 -7 30q0 19 10.5 35.5t28.5 26.5q13 7 30 7q20 0 36.5 -10t25.5 -28q23 -46 57 -71.5t73 -33.5q20 -5 46 -5q20 0 41 4q44 6 86 26q42 22 72 52t38 66q8 33 15.5 87.5t14 118.5
t13.5 135t13 139.5t11.5 131t9.5 119.5h-212z" />
    <glyph glyph-name="K" unicode="K" horiz-adv-x="922" 
d="M175 992q7 27 31 41.5t52 6.5t42.5 -32t4.5 -64.5t-20 -84.5t-23 -102t-26 -122t-26 -130.5t-23 -128t-16 -112t-6 -85.5q0 -24 4.5 -42.5t20.5 -18.5q23 0 57.5 40.5t76 103t88.5 142.5t93.5 163.5t89 163.5t74.5 142.5t52.5 102t20.5 40.5q8 15 24.5 25.5t36.5 10.5
q16 0 29 -7q19 -9 29.5 -25.5t10.5 -36.5q0 -16 -8 -32q0 -1 -20.5 -41t-56 -108t-83 -155.5t-101.5 -181.5q0 -15 5 -15l173 -389q6 -15 6 -29q0 -19 -10.5 -36t-29.5 -27q-13 -5 -28 -5q-19 0 -36 10t-27 30l-142 317q-57 -87 -105 -152t-92.5 -113t-84 -75t-70.5 -27
q-30 0 -51.5 18t-34.5 52t-19.5 83t-6.5 105q0 76 9 164t23 174.5t30 166t30 140t23.5 98z" />
    <glyph glyph-name="L" unicode="L" horiz-adv-x="791" 
d="M173 1005q8 26 32 40.5t51 6.5q29 -7 43 -31t5.5 -64t-16 -84t-17.5 -102t-20.5 -123.5t-21 -133.5t-17.5 -131.5t-12 -119t-5 -93.5q0 -32 3.5 -54t19.5 -26q34 -5 69 -8t69 -3q58 0 111.5 5.5t95 13t70.5 14.5l29 7q20 4 44 -11t29 -42q6 -29 -9 -52.5t-30 -27.5
q0 -1 -39.5 -9t-92.5 -15.5t-122 -14.5t-140 -7q-42 0 -83.5 3t-80.5 11h-1q-23 3 -39 23t-27 53t-16 78t-5 97q0 78 9 167.5t22.5 178t30 170t30 145t22.5 101.5z" />
    <glyph glyph-name="M" unicode="M" horiz-adv-x="1090" 
d="M211 998q-2 30 15 52.5t46 25.5q15 2 28 -2t23.5 -12.5t17.5 -20t8 -25.5q3 -14 4 -23.5t-1 -19.5q6 -38 15 -98.5t21 -130.5t27 -140.5t32 -128t36.5 -96.5t44.5 -36v0q17 0 42 32t53.5 80.5t60.5 110t64 126t60.5 126t50.5 110t35 79l13 30.5q7 16 22.5 23.5t32.5 7.5
q16 0 30.5 -4.5t25 -13t16.5 -21t5 -26.5l-83 -1001q-3 -28 -25 -47t-51 -16q-15 1 -26.5 7.5t-20 17t-12.5 23t-4 26.5l53 630q-62 -114 -104.5 -185t-84.5 -127t-79.5 -90t-66.5 -36q-37 -2 -71 25t-64 75.5t-55 113.5t-57 178l-97 -567q-6 -28 -29 -44.5t-51 -11.5
q-29 5 -45 28t-12 51l160 926q-3 12 -3 13v6z" />
    <glyph glyph-name="N" unicode="N" horiz-adv-x="951" 
d="M244 1041q27 -3 45 -25t15 -51l-9 -54q15 -50 39 -125t52.5 -159.5t59.5 -170t61 -153.5t56 -114t48 -46q19 0 32.5 41t24 100t21 135.5t18.5 156t15 155t11.5 136t7.5 98l3 37.5q0 28 21 47.5t50 17.5t47.5 -23.5t38.5 -50.5q-20 0 -22.5 -45t-8.5 -118.5t-16 -168
t-24.5 -192t-33.5 -191t-43 -167t-53.5 -115.5t-60.5 -42q-41 0 -87.5 48t-95.5 130.5t-96 189.5t-102 262l-67 -570q-4 -29 -26 -46.5t-51 -13.5q-29 3 -46.5 25.5t-14.5 50.5l104 872q-3 8 -5 14t-4 16q-5 20 1.5 38t23.5 32q10 22 29 32t42 7z" />
    <glyph glyph-name="O" unicode="O" horiz-adv-x="1055" 
d="M174 819q18 27 56 33q29 63 62.5 104.5t78.5 69t102.5 40.5t132.5 13q10 0 17.5 -0.5t17.5 -0.5q101 -6 177 -54t121 -131q35 -65 50.5 -143.5t11.5 -164.5q-4 -68 -16 -138t-33.5 -136t-52 -125.5t-71.5 -105.5q-67 -75 -164.5 -117t-234.5 -38q-58 1 -109 19.5
t-94 49.5t-75.5 74.5t-55.5 97.5q-24 56 -34.5 120t-8.5 133q2 99 33 202.5t89 197.5zM261 691q-35 -73 -52 -141.5t-19 -134.5q-2 -56 6 -105.5t26 -91.5q28 -69 80.5 -111t130.5 -44q103 -3 174 26t117 81q31 35 56.5 85t43.5 106t28 114.5t11 113.5q3 69 -7.5 129.5
t-37.5 109.5q-26 51 -74 82t-110 31q-64 0 -114 -7.5t-86 -30t-58 -60t-30 -95.5q-4 -28 -27 -45t-58 -12z" />
    <glyph glyph-name="P" unicode="P" horiz-adv-x="917" 
d="M129 917q-27 -4 -49.5 14t-26.5 47q-3 28 15 50t46 25q71 9 141.5 14t139.5 5q63 0 121 -5.5t109 -18.5q55 -14 99.5 -36.5t76 -56t49 -78t17.5 -102.5q0 -41 -8 -83q-16 -83 -46.5 -143t-69.5 -101t-84.5 -66t-92.5 -38.5t-91.5 -18t-80.5 -4.5q-23 0 -42 1t-30 2
q-7 2 -15 2q-5 0 -22 8l-36 -328q-4 -28 -25.5 -45.5t-49.5 -13.5q-29 3 -47 25t-14 51l98 882q0 2 0.5 4t0.5 18q-30 -5 -47 -6.5t-36 -3.5zM301 464l30 -2q9 -1 23 -1.5t32 -0.5q39 0 91 8t101.5 34.5t90 77.5t56.5 137q2 12 3 22.5t1 20.5q0 65 -38.5 102t-100.5 54
q-43 11 -93.5 15t-104.5 4h-56q13 -30 12 -46z" />
    <glyph glyph-name="Q" unicode="Q" horiz-adv-x="1087" 
d="M147 753q7 15 19.5 24.5t33.5 15.5q10 61 32.5 107t63.5 84q49 45 130 73t176 28h18q10 0 21 -1q48 0 93.5 -14t83.5 -38.5t69.5 -58.5t52.5 -73q32 -59 47 -129.5t15 -149.5q0 -8 -0.5 -15.5t-0.5 -16.5q-1 -55 -11 -114t-26 -116t-38 -110.5t-54 -105.5l132 -79
q16 -9 24.5 -24.5t8.5 -34.5t-10 -35t-25.5 -24.5t-33.5 -8.5q-19 0 -35 10l-154 92q-69 -57 -153 -84.5t-197 -23.5q-110 5 -196 56t-133 148q-25 53 -37.5 115.5t-10.5 132.5q2 86 26 179.5t69 190.5zM524 194q-17 9 -25 24.5t-8 33.5q0 20 10 36q9 16 24.5 24t32.5 8
q9 0 19 -2.5t18 -7.5l159 -96q28 43 46 88.5t32 94.5t22 99.5t9 99.5q3 68 -7.5 129t-35.5 109q-27 49 -75.5 81t-110.5 32q-90 0 -151.5 -17.5t-93.5 -46.5q-28 -27 -41.5 -64.5t-15.5 -83.5v-23q0 -16 -6 -30t-16.5 -23t-24 -14t-37.5 -2q-55 -145 -58 -265
q-3 -108 32 -183q31 -63 86 -93t125 -32q62 -2 111.5 8t106.5 38z" />
    <glyph glyph-name="R" unicode="R" horiz-adv-x="955" 
d="M221 888v13q-30 -3 -48.5 -6.5t-38.5 -7.5q-28 -5 -51 11t-29 45q-4 28 12 51t45 28q99 18 191 28.5t176 10.5q106 0 187 -20q57 -13 101 -36.5t75 -57t47.5 -78.5t16.5 -103q0 -18 -0.5 -36t-4.5 -37q-18 -103 -75.5 -178.5t-143.5 -113.5q-17 -8 -34 -13.5t-50 -14.5
q64 -90 122 -170.5t132 -156.5q19 -20 19 -48t-20 -48t-48 -20q-27 0 -48 21q-48 49 -90 101t-80 104.5t-75.5 104t-80.5 104.5q-33 1 -60 7t-65 30l-42 -382q-5 -29 -27.5 -46.5t-49.5 -14.5q-28 4 -46 26t-15 51zM316 514q46 28 75 28q23 0 45.5 -10.5t50.5 -32.5
q38 0 73 6t66 22q56 25 91 72t47 113q4 21 4 40q0 67 -36.5 103.5t-98.5 52.5q-69 17 -159 17q-27 0 -54.5 -2t-70.5 -5q11 -27 10 -45z" />
    <glyph glyph-name="S" unicode="S" horiz-adv-x="945" 
d="M878 748q-11 -27 -37 -38.5t-52 -0.5t-37 37t-2 51q9 21 9 42q0 30 -18 49.5t-43 31t-54.5 16.5t-58.5 5q-65 1 -117 -5.5t-93 -27.5t-68.5 -60.5t-42.5 -104.5q-7 -34 12 -60t53.5 -44t78.5 -33t89 -29q65 -20 127 -42t109.5 -52t76 -73t28.5 -107q0 -37 -13 -86
q-20 -83 -62 -138t-98.5 -88.5t-124 -46.5t-138.5 -9q-54 2 -107 20t-99.5 48t-83 68t-55.5 80q-7 14 -7 31q0 19 10.5 35.5t28.5 25.5q15 6 29 6q20 0 37 -9.5t26 -28.5q13 -29 37.5 -53t54.5 -42t64 -29.5t70 -14.5q8 -1 18 -1h16q43 0 82.5 8.5t73 29.5t58 56t39.5 87
q11 43 -8 73t-54 52t-81 38t-94 31q-65 19 -125 40.5t-106.5 51t-74 70.5t-27.5 102q0 28 8 61q18 90 58.5 150t99.5 94.5t135 49t164 12.5q82 -1 155 -28t116 -91q18 -28 26.5 -58.5t8.5 -62.5q0 -47 -17 -89z" />
    <glyph glyph-name="T" unicode="T" horiz-adv-x="988" 
d="M120 875q-29 0 -49 20t-21 49q0 29 20 49t49 21l749 4q29 0 49 -20t20 -49q1 -28 -19 -48t-49 -20l-325 -3l-95 -881q-3 -29 -25 -47t-51 -14q-28 3 -46 24.5t-15 49.5l95 867z" />
    <glyph glyph-name="U" unicode="U" horiz-adv-x="990" 
d="M180 1014q8 27 33.5 40t52.5 4q27 -8 40 -33.5t-1 -72t-28 -101.5t-30 -125.5t-30 -145.5t-23 -150t-9 -141q0 -41 4.5 -76.5t15.5 -61.5t30 -43t48 -17q80 -1 145 25.5t117 73.5t89.5 109t64.5 130.5t43.5 140.5t24.5 140l36 292q2 22 21 32.5t43 10.5q15 0 28.5 -3
t23.5 -10.5t15.5 -17.5t4.5 -23l-118 -967q-3 -29 -25.5 -46.5t-51.5 -13.5q-28 3 -46 25.5t-14 51.5l18 145q-58 -73 -103 -111.5t-96.5 -65.5t-112 -41.5t-131.5 -13.5q-60 1 -99.5 28t-63.5 73.5t-35 111t-11 136.5q0 77 9.5 159.5t23.5 161.5t31.5 149t32 123.5t24 86
t9.5 31.5z" />
    <glyph glyph-name="V" unicode="V" horiz-adv-x="879" 
d="M50 973q0 29 19.5 49.5t48.5 20.5q29 1 49.5 -19l20.5 -20q0 -28 1.5 -66.5t5.5 -99t9.5 -138t12.5 -158t15 -158.5t17.5 -138.5t20.5 -101.5t30 -41q29 0 60.5 42.5t62 108t62.5 149.5t61.5 171t55.5 170.5t45 149t30.5 107l11.5 41.5q7 28 31 41.5t52 7.5
q28 -7 42.5 -31.5t7.5 -53.5q0 -1 -12.5 -47t-35 -122.5t-53.5 -174.5t-70 -199.5t-84.5 -199t-94 -172.5t-99.5 -120.5t-101 -45.5q-36 0 -65 43t-52.5 116t-41 167.5t-28.5 193.5t-18.5 193.5t-11 169t-4.5 120z" />
    <glyph glyph-name="W" unicode="W" horiz-adv-x="1262" 
d="M52 976q0 28 20 48t49 20t49 -20t20 -48v-140t1 -172t3.5 -178t6.5 -159t10 -119t22 -50q21 0 49 40.5t60.5 102.5t67.5 137.5t65 149.5q8 20 15 38.5t14 36.5q0 12 -0.5 20t-0.5 18q0 12 0.5 21t1.5 18q5 50 25.5 75.5t58.5 25.5q64 0 75 -64q2 -9 1.5 -24.5t-3 -32.5
t-7.5 -36t-11 -37q2 -33 5.5 -68.5t9.5 -70.5q8 -55 20 -116t25 -111t26 -86t27 -36q17 0 28 27t27 62q29 61 58.5 137t58.5 157t54.5 161.5t44.5 148.5t31 121.5t13 80.5q2 28 23.5 47t49.5 16q29 -2 48 -22.5t16 -49.5q-2 -33 -17 -103t-40 -161t-57.5 -194.5t-71 -202
t-79.5 -184.5t-81 -141q-26 -36 -53.5 -55t-57.5 -19q-31 0 -61.5 31.5t-57.5 85t-49 124t-44 171.5q-52 -102 -96.5 -175t-88 -130t-81.5 -90.5t-67 -31.5q-33 3 -58 32.5t-42.5 82t-29 123t-17.5 150.5t-8 165t-2 166q0 82 1 155.5t1 131.5z" />
    <glyph glyph-name="X" unicode="X" horiz-adv-x="938" 
d="M768 1067q21 21 50 21q28 0 48 -18q11 -11 16.5 -23.5t5.5 -26.5q0 -12 -5 -24.5t-14 -22.5q-26 -25 -62 -72.5t-78.5 -108.5t-91 -132.5t-102.5 -150.5q53 -97 99 -182t81.5 -150.5t67 -122t31.5 -57.5q-11 21 -11 3t-9.5 -34.5t-26.5 -25.5q-15 -9 -33 -9t-34.5 10
t-24.5 24q0 1 -18.5 34t-47.5 87.5t-68.5 126t-90.5 166.5q-63 -97 -111 -171.5t-84 -130.5t-48.5 -75t-12.5 -18q-28 -46 -43.5 -54.5t-31.5 -8.5q-18 0 -38 11q-15 11 -23 26.5t-8 32.5q0 20 12 37l24.5 40.5t68 107.5t99.5 154t122 186q-42 76 -78.5 144t-68.5 128.5
t-57 108t-40 78.5q-9 16 -9 31q0 18 10 34.5t28 26.5q13 6 30 6q20 0 36.5 -9.5t25.5 -27.5q14 -27 35 -67t47 -89t56.5 -105t70.5 -131q54 82 98 145.5t82.5 116.5t71 95t54.5 66z" />
    <glyph glyph-name="Y" unicode="Y" horiz-adv-x="897" 
d="M157 1072q11 13 25 19t28 6q25 0 43 -16q13 -10 19.5 -23.5t6.5 -29.5q0 -24 -16 -43q-17 -21 -30.5 -50t-23.5 -63.5t-15.5 -73t-5.5 -77.5q0 -43 8.5 -85t28 -75t53 -53.5t84.5 -20.5q97 6 163 48.5t106.5 107.5t59 146t18.5 165v24t-1 26q-2 28 16 49.5t47 23.5
t51 -16t24 -47q1 -11 1 -24v-24q0 -103 -22.5 -203.5t-72.5 -184t-125.5 -143t-190.5 -82.5l-60 -370q-4 -29 -27.5 -45.5t-50.5 -12.5q-29 5 -45.5 28t-12.5 50l58 352q-72 13 -117.5 50t-74.5 87t-42.5 109.5t-13.5 119.5q0 50 8 100.5t22 96t34 86t43 68.5z" />
    <glyph glyph-name="Z" unicode="Z" horiz-adv-x="918" 
d="M195 876q-29 0 -49.5 19.5t-20.5 48.5q-1 29 19 49.5t47 21.5l608 9q14 0 27 -6t22 -16t14.5 -22.5t5.5 -26.5q0 -26 -1 -27q0 1 -37 -39t-82.5 -90t-103.5 -115.5t-119 -136t-119 -141t-104 -131t-74 -107t-28 -69.5q0 -13 15 -18t35.5 -8t44.5 -4.5t50 -1.5h29
q15 0 27 1q47 3 93 8t86.5 13.5t71 19.5t45.5 26q21 19 48 19t49 -22q20 -21 20 -46q0 -29 -21 -51q-23 -22 -64.5 -40t-93.5 -31.5t-111 -22t-117 -10.5q-13 -2 -28 -2h-31q-48 0 -103 6t-99 23t-70 46.5t-20 80.5q4 37 34.5 94.5t77.5 127t106 146t120.5 150.5
t121.5 142.5t125 139.5z" />
    <glyph glyph-name="bracketleft" unicode="[" horiz-adv-x="528" 
d="M410 1159q28 0 48 -20t20 -49q0 -28 -20 -48.5t-48 -20.5h-151q-17 -163 -25.5 -316t-16.5 -310q-5 -99 -10.5 -196.5t-12.5 -205.5l160 1q28 1 48 -19t20 -48q0 -29 -19.5 -49t-47.5 -21l-234 -3q-15 0 -27.5 6.5t-22.5 17.5t-15.5 24t-4.5 26q9 123 16 239.5t12 233.5
q10 171 20 343t29 353q1 12 7.5 22.5t16.5 20t21.5 14.5t23.5 5h213z" />
    <glyph glyph-name="backslash" unicode="\" horiz-adv-x="938" 
d="M70 972q-10 11 -15 23.5t-5 24.5q0 14 5.5 26.5t16.5 23.5q19 18 47 18q30 0 52 -22q13 -8 46.5 -50.5t80.5 -111t102.5 -155t114 -177.5t115.5 -181t106 -165t86.5 -128t55.5 -73q10 -14 10 -34q0 -17 -8.5 -32.5t-23.5 -26.5q-19 -11 -38 -11q-15 0 -30.5 8.5
t-25.5 23.5z" />
    <glyph glyph-name="bracketright" unicode="]" horiz-adv-x="528" 
d="M119 -146q-29 0 -49 20.5t-20 49.5q0 28 20 48t49 20h151q17 164 25.5 317t15.5 308q6 100 11 197t12 205l-159 -1q-28 -1 -48 19t-20 49t19.5 49.5t47.5 20.5l235 2q14 0 27 -6t22 -16t14.5 -24.5t4.5 -27.5q-9 -122 -15.5 -238.5t-12.5 -232.5q-9 -173 -19 -344.5
t-29 -353.5q-1 -11 -7.5 -21.5t-16.5 -19.5t-21.5 -14.5t-22.5 -5.5h-214z" />
    <glyph glyph-name="asciicircum" unicode="^" horiz-adv-x="572" 
d="M160 728q-20 -14 -42 -14q-33 0 -55 27q-7 10 -10 19.5t-3 21.5q0 16 6.5 30t20.5 25q52 39 86 65t56 42q25 19 39 30q16 13 41 13q14 0 27.5 -4.5t39.5 -28.5q0 -2 5 -7t26.5 -25t47 -44t52.5 -48q25 -22 25 -52q0 -25 -18 -46q-20 -24 -50 -24q-25 0 -45 18
q-30 25 -57.5 50.5t-55.5 53.5q-30 -21 -61.5 -45.5t-74.5 -56.5z" />
    <glyph glyph-name="underscore" unicode="_" horiz-adv-x="863" 
d="M743 -10q30 0 50 -20t19 -49q1 -29 -19 -49t-49 -20l-625 2q-29 0 -49 20.5t-20 49.5q0 28 20 48t49 20z" />
    <glyph glyph-name="grave" unicode="`" horiz-adv-x="494" 
d="M83 896q-18 13 -25.5 27.5t-7.5 31.5q0 23 13 39q11 14 25 21.5t31 7.5q11 0 21 -3t19 -10q50 -35 92 -64l38 -24t34.5 -21t29.5 -15t21 -6q29 0 49.5 -20t20.5 -49t-20.5 -49t-49.5 -20q-18 0 -48 11.5t-63 29t-66.5 37t-59 37.5t-40 28.5z" />
    <glyph glyph-name="a" unicode="a" horiz-adv-x="811" 
d="M601 706q6 -4 10 -7.5t17 -16.5q24 25 56 25q14 0 28.5 -5t26 -13t17 -18.5t3.5 -23.5v-5q0 1 -1 0l-78 -607q-3 -29 -25.5 -46t-51.5 -13q-27 3 -45 25.5t-14 50.5l14 51q-72 -85 -122.5 -115.5t-110.5 -32.5q-59 0 -110.5 19t-92.5 70q-29 39 -48.5 92t-22.5 125
q-1 26 0 54.5t4 51.5h1q8 69 28.5 122t51 97t71 78.5t84.5 56.5q34 19 72.5 28t76.5 9q52 -3 91 -17t70 -35zM585 495q-26 13 -37 30.5t-9 40.5q0 16 -20 30q-14 11 -36.5 17.5t-42.5 6.5q-24 0 -45 -6.5t-43 -15.5q-61 -30 -106 -91t-54 -146q-4 -51 -3 -93q4 -94 41 -137
q17 -23 40.5 -31t47.5 -8q52 3 93 42t73.5 97t57 126t43.5 138z" />
    <glyph glyph-name="b" unicode="b" horiz-adv-x="770" 
d="M150 987q3 28 25 46t50 16q29 -3 46.5 -25t15.5 -51l-32 -297q50 37 87 49.5t84 12.5q74 0 128.5 -26.5t91 -72.5t55.5 -106.5t19 -128.5q0 -83 -24 -155t-64.5 -128t-95.5 -93t-118 -52q-46 -12 -88 -12q-34 0 -67 7.5t-61 23.5q-6 3 -11.5 6.5t-16.5 11.5
q-24 -17 -53 -17q-27 0 -49 13.5t-21 40.5l0.5 19t3 52.5t7.5 77.5t14 95zM206 214q30 -11 42 -33t8 -48q0 -7 10 -17q15 -8 30 -10.5t31 -2.5t30.5 2t28.5 4q44 12 79.5 38t61.5 65.5t40.5 88t14.5 103.5q0 39 -8 74t-25.5 62.5t-48.5 43.5t-74 16q-46 0 -81.5 -26t-60 -67
t-41.5 -93t-27 -106z" />
    <glyph glyph-name="c" unicode="c" horiz-adv-x="761" 
d="M706 466q-4 -28 -26.5 -44t-51.5 -11q-29 4 -45 27t-11 52q2 25 -1 50t-18 43q-18 22 -49 30.5t-62 8.5q-28 0 -53.5 -6t-50.5 -19q-51 -26 -88.5 -83t-53.5 -148l-1 -1q-5 -18 -6 -35.5t-1 -34.5q0 -39 7.5 -76t22.5 -66q18 -33 46.5 -52.5t64.5 -21.5h1q23 -2 41 -0.5
t40 7.5q47 13 82.5 38.5t51.5 53.5q9 17 25.5 25.5t33.5 8.5q19 0 35 -9q17 -9 26 -26t9 -34q0 -16 -10 -33q-12 -24 -34 -47.5t-50.5 -44t-63 -38t-71.5 -26.5q-30 -7 -63.5 -11.5t-63.5 -1.5h-1q-72 6 -127.5 44.5t-90.5 100.5q-26 46 -37.5 97.5t-11.5 106.5q0 46 9 97
q23 130 80.5 211t135.5 122q78 39 167 39q63 0 121 -22.5t93 -63.5q55 -67 55 -155q0 -11 -1.5 -24.5t-3.5 -27.5z" />
    <glyph glyph-name="d" unicode="d" horiz-adv-x="848" 
d="M409 758q58 0 102.5 -16.5t93.5 -57.5l36 323q2 23 21.5 34t43.5 11q15 0 28.5 -4t23.5 -11.5t15.5 -16.5t5 -16t-2 -39t-7 -86.5t-14 -126.5t-22.5 -152l-64 -579q-3 -29 -25 -46t-51 -13q-25 2 -42 20.5t-21 66.5q-50 -51 -89 -70.5t-86 -18.5h-1q-68 -1 -128.5 25
t-102.5 75q-34 42 -53.5 101.5t-19.5 125.5q0 16 1 30.5t3 30.5q10 79 41 153.5t78 131t107.5 91t128.5 34.5zM355 98q43 0 77 31.5t61 83t48 119t36 146.5q-30 19 -38 49q-3 11 -7 22t-12 21q-14 24 -42 37t-69 13q-44 0 -81 -26.5t-65.5 -68t-47 -93.5t-24.5 -101
q-3 -20 -3 -43q0 -40 10 -77.5t30 -60.5q22 -27 55.5 -39.5t71.5 -12.5z" />
    <glyph glyph-name="e" unicode="e" horiz-adv-x="786" 
d="M187 288q3 -41 11 -75t24 -63t42.5 -47.5t62.5 -18.5q54 0 93 12.5t64 27.5t39 29.5t14 15.5q18 23 52 23q24 0 43 -15q26 -21 26 -54q0 -23 3 -19q0 -5 -28.5 -35.5t-67.5 -55.5t-98.5 -46t-139.5 -21q-70 0 -122 31t-86.5 81.5t-51.5 113.5t-17 127q0 53 11 111.5
t35.5 114.5t64.5 104.5t98 82.5q39 24 84 35t93 11q76 0 142.5 -28t104.5 -79q28 -38 40.5 -80.5t12.5 -89.5q0 -15 -1.5 -29.5t-3.5 -29.5q-9 -42 -45 -70t-87.5 -44t-114 -22.5t-123.5 -6.5h-34q-14 0 -30 2zM208 424q35 -3 55 -4t37 -2q14 -1 31 -1h38q34 0 73 1t71 4
t57 8t25 18q5 31 0.5 64t-22.5 57q-21 28 -60 39.5t-77 11.5q-30 0 -57 -6t-51 -19q-45 -28 -72 -71.5t-48 -99.5z" />
    <glyph glyph-name="f" unicode="f" horiz-adv-x="715" 
d="M119 550q-29 0 -49 20t-20 48q0 29 20 49t49 20h52q17 89 36.5 157t47.5 117t64 77t84 29q67 0 127.5 -21t97.5 -67q21 -28 29 -55.5t8 -58.5q0 -28 -6 -58q-8 -26 -32 -41t-52 -7q-27 8 -41.5 31.5t-6.5 53.5q2 11 1.5 24.5t-9.5 26.5q-20 22 -50.5 28t-61.5 6
q-37 -1 -60 -66t-41 -176h149q28 0 48 -20t20 -49q0 -28 -20 -48t-48 -20h-166q-9 -78 -14.5 -141.5t-10.5 -126.5t-10 -128t-12 -138q-3 -29 -24.5 -46.5t-49.5 -15.5q-29 3 -47.5 24.5t-14.5 49.5q4 51 9 117t10.5 135t12 136.5t13.5 133.5h-32z" />
    <glyph glyph-name="g" unicode="g" horiz-adv-x="790" 
d="M586 703q8 -6 17 -13t21 -17q21 7 39 7q16 0 30 -4t24.5 -12t16.5 -17.5t3 -24.5q-8 -72 -13 -146t-10 -147q-7 -99 -15 -192t-23.5 -172.5t-42 -145t-72.5 -111.5t-112.5 -72t-162.5 -26q-73 0 -119 13t-72 32.5t-35.5 44t-9.5 49.5q0 21 5.5 41.5t10.5 36.5q8 20 17 35
q9 16 25.5 25t34.5 9t34 -10q17 -9 26 -25.5t9 -33.5q0 -19 -11 -35q-5 -15 5 -27q7 -7 25.5 -12t54.5 -5q61 0 105 20.5t74.5 58t50 89.5t36.5 147q-61 -66 -107 -91.5t-101 -25.5q-68 0 -118.5 29t-85 75t-51.5 106.5t-17 123.5q0 86 23.5 170t66.5 151t103 107.5
t134 40.5q46 0 95 -9.5t92 -36.5zM573 469q-24 13 -33.5 31.5t-6.5 38.5q4 14 -2.5 27t-18.5 20q-22 15 -54 20.5t-59 5.5q-45 0 -79.5 -34t-59 -82.5t-38 -106t-13.5 -109.5q0 -33 6.5 -67t21.5 -63.5t42 -47.5t65 -18q48 0 84.5 37t63.5 93t46.5 121.5t34.5 133.5z" />
    <glyph glyph-name="h" unicode="h" horiz-adv-x="685" 
d="M146 1007q2 29 24 46.5t51 15.5q28 -3 46 -24.5t15 -50.5l-33 -339q56 50 101.5 69.5t100.5 19.5q56 0 90.5 -34.5t56 -91t29.5 -129.5t8 -146q0 -66 -4.5 -126.5t-16.5 -150.5t-35 -107t-50 -12q-29 5 -46 28.5t-12 51.5l3.5 18t8 49t9.5 71.5t10 85t7.5 91.5t2.5 88
q0 35 -2 66.5t-9 54.5t-18.5 39t-31.5 16q-42 0 -75 -20.5t-59.5 -55t-45.5 -79t-32.5 -91t-22.5 -94.5t-13 -90l-14 -144q-2 -22 -21.5 -32.5t-43.5 -10.5q-29 0 -51.5 13.5t-21.5 40.5q0 1 2.5 37.5t11.5 96.5z" />
    <glyph glyph-name="i" unicode="i" horiz-adv-x="340" 
d="M123 656q2 28 24.5 46.5t50.5 14.5q28 -3 46 -25t16 -51l-70 -621q-3 -29 -25 -46.5t-51 -14.5q-28 3 -46 25t-15 51zM152 958q4 28 26 45.5t50 13.5q14 -2 26 -9t20.5 -17t12 -23t2.5 -28l-6 -39q-3 -29 -25.5 -46t-51.5 -14q-28 4 -45.5 26.5t-13.5 50.5z" />
    <glyph glyph-name="j" unicode="j" horiz-adv-x="737" 
d="M50 -101q0 14 6.5 27t17 22t24 15t27.5 4q28 -2 45.5 -23.5t17.5 -50.5q0 -38 7 -65t20 -45q18 -23 47 -25q40 0 68 13t46 38q45 63 62 208q3 37 9.5 98t13.5 130t14.5 139.5t13 127.5t9.5 93t4 37q3 28 25 46.5t50 14.5q28 -3 46 -24.5t13 -74t-11.5 -112t-13.5 -131.5
t-14.5 -141t-14 -128t-9.5 -91v0q-10 -89 -30.5 -156.5t-54.5 -114.5q-78 -110 -219 -110q-57 4 -96.5 24t-67.5 58q-26 34 -40.5 83.5t-14.5 113.5zM546 954q4 29 26 46t51 14q28 -4 46 -26t14 -51l-5 -39q-3 -29 -26 -46.5t-52 -13.5q-27 3 -45 25.5t-14 51.5z" />
    <glyph glyph-name="k" unicode="k" horiz-adv-x="689" 
d="M157 1016q5 28 28.5 43.5t52.5 10.5q28 -4 44 -28t4 -78t-26 -127t-29 -163.5t-28.5 -180t-22.5 -165.5t-9 -121q0 -29 8 -48.5t28 3.5q47 53 95 121t88.5 134.5t69.5 124t39 88.5q9 26 34 39.5t53 4.5q27 -8 40 -33.5t5 -52.5q-8 -20 -23.5 -51t-38 -69t-49.5 -81.5
t-61 -92.5l150 -246q5 -8 7 -18t2 -19q0 -17 -8 -32.5t-24 -25.5t-35 -10q-18 0 -34 8.5t-25 25.5l-121 196q-37 -44 -68.5 -83.5t-65 -74t-69 -56.5t-70.5 -20q-25 2 -36.5 53t-11.5 138q0 78 8 173.5t20 194t26 191.5t25.5 165t19.5 117z" />
    <glyph glyph-name="l" unicode="l" horiz-adv-x="363" 
d="M171 981q5 29 27 46.5t50 13.5q29 -3 47 -25.5t14 -51.5l-118 -950q-3 -29 -25.5 -46.5t-51.5 -13.5q-29 3 -46.5 25.5t-14.5 50.5z" />
    <glyph glyph-name="m" unicode="m" horiz-adv-x="1090" 
d="M121 666q2 29 24.5 46.5t51.5 13.5q28 -3 45.5 -24.5t15.5 -50.5l-11 -63q60 78 101 104t87 26q38 0 67.5 -15.5t51 -42t36.5 -64t31 -107.5q34 68 59.5 105.5t54.5 65t59.5 43t64.5 15.5q53 0 88 -32.5t55.5 -85.5t29 -121.5t8.5 -138.5q0 -63 -10.5 -168.5
t-17.5 -147.5t-30.5 -58t-51.5 -11q-28 4 -44 27t-10 53l3 18t7 47.5t9.5 68t10.5 81.5t7.5 87.5t2.5 83.5q0 32 -2 60t-8.5 49.5t-17 35.5t-29.5 14q-38 0 -70.5 -44t-59 -108.5t-48.5 -137.5t-47.5 -189t-42.5 -125t-38 -9q-17 0 -31.5 5t-26 13t-17 19t-2.5 25q1 11 6 46
t10.5 84.5t10.5 107t5 111.5q0 40 -3 75.5t-11 63.5t-21.5 45.5t-37.5 17.5q-29 0 -55.5 -26.5t-49 -67t-41.5 -92.5t-35 -105.5t-28 -105t-20.5 -91.5t-15 -76t-23.5 -46t-40 -10q-16 0 -30.5 4t-24.5 12.5t-16 19t-4 24.5z" />
    <glyph glyph-name="n" unicode="n" horiz-adv-x="783" 
d="M125 671q4 28 26.5 46t50.5 14q29 -3 46 -25t14 -51l-19 -159q53 77 84 113.5t64 64t69 42.5t74 15q60 0 97.5 -29.5t60.5 -79t32 -114.5t9 -133q0 -70 -6.5 -136.5t-25 -165.5t-42 -114t-52.5 -9q-27 7 -42.5 30.5t-8.5 53.5l4 17.5t10 47.5t12.5 69.5t12.5 83t10 88.5
t4 86q0 35 -3.5 64t-12 51.5t-22.5 37.5t-37 15q-36 0 -70 -27t-65 -69.5t-58 -95t-51.5 -108t-42.5 -108.5t-32 -94.5t-11 -31.5t3 7q-26 -87 -43 -96t-36 -9q-16 0 -30 4t-25 13t-17 20.5t-4 25.5z" />
    <glyph glyph-name="o" unicode="o" horiz-adv-x="770" 
d="M136 541q17 12 41 16q10 34 27.5 64t46.5 55t74.5 42t111.5 17q81 0 142 -39.5t94 -104.5q25 -47 36 -101.5t11 -108.5q0 -68 -14.5 -133t-42.5 -119.5t-69.5 -97t-95.5 -65.5q-35 -14 -75.5 -21.5t-80.5 -7.5q-77 0 -136.5 32t-97.5 84q-30 42 -44 92.5t-14 101.5
q0 61 11.5 113t26 91t29 62.5t19.5 27.5zM216 420q-6 -11 -9 -28t-7.5 -40t-8 -50.5t-3.5 -54.5q0 -31 8 -60.5t24 -53.5q19 -28 51.5 -43t70.5 -15q28 0 52.5 3.5t48.5 13.5q37 11 63.5 42.5t43 72t24.5 86.5t8 88q0 39 -7 77.5t-23 69.5q-34 69 -115 69q-51 0 -77 -16.5
t-40 -38.5q-15 -23 -17 -54q0 -29 -20.5 -49t-49.5 -19h-17z" />
    <glyph glyph-name="p" unicode="p" horiz-adv-x="829" 
d="M165 627q1 13 8 24.5t18 20t23.5 12.5t27.5 2q35 -5 59 -50q45 53 86 76.5t88 23.5q85 0 146.5 -43t100.5 -112q29 -54 43 -114t14 -116q0 -48 -10 -95t-27 -92q-17 -44 -44 -84.5t-63 -70.5t-82 -48t-103 -18q-73 0 -120.5 29.5t-91.5 87.5l-49 -419v-7
q-3 -22 -21.5 -32.5t-42.5 -10.5q-29 0 -52 14t-22 41l2.5 32.5t7.5 87.5t14.5 128.5t22.5 154.5zM475 598q-37 0 -67 -27.5t-54 -72t-44.5 -103t-37.5 -133.5q25 -10 37.5 -23t15.5 -34q7 -34 23 -60q13 -24 37.5 -44t64.5 -20q63 0 103 40t61 92q13 34 20 69t7 69
q0 41 -9.5 83.5t-29.5 79.5q-22 38 -53.5 61t-73.5 23z" />
    <glyph glyph-name="q" unicode="q" horiz-adv-x="753" 
d="M429 -461q-15 -1 -27.5 4t-22.5 13.5t-16 20.5t-6 26q-1 29 18.5 50.5t47.5 23.5l41 3l36 349q-48 -48 -79.5 -64t-67.5 -17q-79 0 -140 32t-101 93q-28 46 -42.5 101t-16.5 112q-3 64 14 124.5t47.5 114.5t72 97t89.5 70q31 18 63 30t66 9q63 -3 98 -19.5t69 -44.5
q15 13 27.5 17t26.5 4q16 0 30 -4t24.5 -11.5t16.5 -17.5t4 -24l-97 -944h15q28 1 49.5 -18.5t23.5 -46.5q1 -29 -18 -50.5t-47 -22.5zM533 458q-17 14 -23.5 29.5t-4.5 34.5q-8 30 -33 49.5t-58 22.5q-21 0 -38.5 -6.5t-31.5 -15.5q-33 -20 -62 -50t-50 -66.5t-32 -79.5
t-9 -87q1 -39 10 -76t28 -66q20 -31 51.5 -46t68.5 -15q37 1 65.5 37t50 89.5t39 117t29.5 128.5z" />
    <glyph glyph-name="r" unicode="r" horiz-adv-x="701" 
d="M102 652q1 29 23.5 47.5t50.5 15.5q29 -2 47 -22.5t17 -49.5l-7 -62q59 73 103 101.5t96 28.5q71 0 114 -17t66 -43.5t31 -57t8 -58.5q0 -16 -1 -28t-4 -22q-2 -11 -6 -20q-7 -28 -32 -41t-53 -5q-28 7 -41.5 32t-3.5 54q0 1 1.5 11t-5 23.5t-23 23.5t-51.5 10
q-42 0 -75 -39t-59 -96t-45 -125t-32 -130t-21 -109.5t-11 -66.5q-3 -21 -21.5 -31.5t-41.5 -10.5q-30 0 -53 15t-21 42z" />
    <glyph glyph-name="s" unicode="s" horiz-adv-x="716" 
d="M656 485q-11 -28 -36.5 -39t-51.5 -1q-27 10 -38 36t0 57q-11 15 -25 23t-28.5 14t-29.5 9.5t-27 3.5q-25 0 -56.5 -4.5t-60 -16t-50.5 -30t-27 -47.5q-1 -20 13.5 -32.5t34 -21.5t43.5 -15.5t46 -10.5t39.5 -6.5t25.5 -4.5q42 -10 85 -29t76 -47t52.5 -65t13.5 -83
q-3 -28 -13.5 -53t-27.5 -47q-19 -26 -46.5 -48.5t-61 -39.5t-72 -25.5t-78.5 -8.5q-55 0 -105.5 20t-90.5 45t-62.5 45t-22.5 19q-14 13 -19.5 25.5t-5.5 26.5q0 25 20 47q10 12 22.5 17t26.5 5q13 0 25 -4.5t39 -33.5q0 4 8.5 -3.5t35.5 -25.5t60.5 -32.5t68.5 -14.5
q53 0 96 23.5t62 62.5q10 20 -3.5 35t-33 26t-42.5 18.5t-43 12.5q-23 5 -48.5 10.5t-51 11.5t-50.5 14t-50 21q-50 29 -80 72.5t-21 111.5q7 57 39.5 97.5t79 68t102 39.5t108.5 12q49 0 103 -21.5t91 -54.5q25 -23 38.5 -51t13.5 -62q0 -26 -10 -51z" />
    <glyph glyph-name="t" unicode="t" horiz-adv-x="696" 
d="M121 568q-29 0 -49.5 19.5t-21.5 47.5q0 29 19.5 49t48.5 21l72 2q9 42 16 83.5t19 104.5q4 29 26.5 45t51.5 11t45 -28t11 -52q-3 -24 -10 -63.5t-18 -97.5l245 5q15 0 27.5 -5t22.5 -14t15 -21.5t5 -25.5q0 -15 -5 -27.5t-14 -22.5t-21 -15.5t-26 -5.5l-273 -7
q-14 -32 -25 -85.5t-20 -116.5t-15 -125t-6 -104q0 -27 3.5 -46t17.5 -19q50 0 81 16t49 36q22 24 31 54q8 28 32 42.5t51 6.5q29 -8 34.5 -61t-7 -77t-34 -51t-54.5 -50.5t-78 -38.5t-105 -15q-78 0 -111.5 59t-33.5 168q0 75 13.5 175t35.5 229h-45z" />
    <glyph glyph-name="u" unicode="u" horiz-adv-x="713" 
d="M123 668q8 27 32.5 40t53.5 5q26 -7 39.5 -32t3 -61.5t-20 -74t-21 -85t-21.5 -97t-16 -97.5t-6 -86q0 -40 10 -67t37 -27q32 0 62 26t57 68t52 94t46 106.5t39.5 106.5t30.5 92.5t19 66.5l7 26q5 17 21.5 26.5t36.5 9.5q15 0 29.5 -5t26 -13.5t17 -19.5t3.5 -25
l-69 -635q-3 -29 -25 -46.5t-50 -14.5q-29 3 -47 24.5t-14 50.5l14 140q-47 -74 -74.5 -107.5t-57 -57.5t-60.5 -37.5t-64 -13.5q-48 0 -78.5 21t-50 57.5t-27.5 86.5t-8 105q0 52 5.5 105t13.5 102.5t17 93.5t17.5 77t14 53t5.5 19z" />
    <glyph glyph-name="v" unicode="v" horiz-adv-x="678" 
d="M56 630q2 27 24 46t49 17q29 -2 48 -23.5t18 -36.5t-2.5 -44.5t-3 -75t-2.5 -100.5t-1 -107q0 -33 0.5 -63t2 -53.5t5.5 -41t16 -17.5q17 0 35 26.5t38.5 66.5t43 91t44 103.5t41 103.5t35 90.5t25 65l9.5 25.5q9 25 34.5 37.5t51.5 2.5q27 -11 39 -36t-3.5 -69t-36 -94
t-47.5 -114t-58.5 -129t-66 -129t-70 -112.5t-69 -77t-60.5 -28.5q-29 0 -51.5 21t-38.5 59t-27 88t-17 106t-8.5 112.5t-2.5 106.5q0 40 1 72.5t1.5 57t2 38.5t1.5 15z" />
    <glyph glyph-name="w" unicode="w" horiz-adv-x="998" 
d="M50 637q0 29 20.5 49.5t49.5 18.5q29 0 48.5 -20l19.5 -20q0 -29 1.5 -66t4 -92t6 -120t7.5 -119.5t7.5 -95.5t15.5 -41q15 0 30 21t30 53t33 72.5t37 88.5q-2 13 -2 24v23q0 15 0.5 28t1.5 26q7 53 29 82t65 29q45 0 62.5 -27.5t17.5 -65.5q0 -16 -1.5 -30.5t-6.5 -29.5
q-6 -18 -11.5 -37t-14.5 -41q1 -25 8 -62.5t15 -72t24 -95.5t16 14q1 0 16 28t32.5 69.5t38 94.5t41 108.5t40 108.5t34 94.5t24 67.5l9.5 26q9 26 34.5 39t52.5 3q27 -7 39.5 -33t-2.5 -71.5t-34 -97t-44.5 -117.5t-55.5 -135.5t-62.5 -135.5t-64.5 -117.5t-61.5 -80.5
t-52.5 -29q-20 0 -39.5 13t-38.5 35.5t-34.5 55t-34.5 88.5q-36 -53 -60.5 -86t-49.5 -56.5t-47 -36.5t-41 -13q-27 0 -49 27t-39.5 74.5t-29 109t-18.5 127t-10.5 127t-4.5 110.5t-1 79v30z" />
    <glyph glyph-name="x" unicode="x" horiz-adv-x="691" 
d="M187 -12q-11 -25 -38 -35.5t-53 0.5t-36 38t0 52q9 20 28 49.5t45 66.5t57.5 78.5t69.5 89.5q-30 50 -55 92.5t-47 82t-39 73.5t-25 59q-11 27 1.5 52.5t40.5 35.5q26 10 51.5 -3t35.5 -39q14 -40 46.5 -99t79.5 -139q37 48 62.5 80t43.5 58t31 44.5t14 25.5
q5 29 28.5 44.5t51.5 9.5q29 -5 45 -28.5t10 -52.5q-3 -16 -21 -47t-45.5 -70t-63 -85t-76.5 -102q38 -58 69 -104.5t55.5 -82t46 -64.5t21.5 -52q0 -17 -7.5 -31.5t-20.5 -24.5q-18 -12 -40 -12q-16 0 -30.5 7.5t-24.5 19.5q0 -1 -13.5 17t-33.5 47.5t-46 69.5t-65 96
q-34 -44 -58 -75.5t-43 -57.5t-32.5 -47.5t-19.5 -36.5z" />
    <glyph glyph-name="y" unicode="y" horiz-adv-x="761" 
d="M90 676q0 28 20 48.5t48 20.5q29 0 49.5 -20.5t20.5 -48.5q0 -42 2 -89.5t7.5 -96t15 -96t25.5 -87.5q11 -36 21 -73t26 -13q17 25 36.5 57t40 67t40.5 72t38 72q13 33 24.5 59.5t20.5 49.5q14 35 26.5 62.5t25.5 44t28 22t37 -0.5q69 -14 52 -89q-6 -25 -27.5 -74
t-54.5 -112q-31 -75 -75 -175.5t-99 -215t-120.5 -240t-140.5 -253.5q-9 -17 -25 -25.5t-33 -8.5q-18 0 -34 10q-17 9 -26 25t-9 33q0 18 10 35q28 48 56.5 100t55.5 104.5t53 102.5t58 114q-34 -5 -50.5 11t-33 47.5t-30.5 74t-24 85.5q-11 46 -21.5 97t-18.5 103
t-11.5 103t-3.5 98z" />
    <glyph glyph-name="z" unicode="z" horiz-adv-x="718" 
d="M157 574q-28 -1 -48 19t-21 49q0 29 20 49t48 21l444 5q30 1 49 -21.5t19 -49.5q0 -12 -4 -24t-39 -48.5t-80 -86.5t-99 -109.5t-101 -115t-80.5 -99.5t-40.5 -64q0 -15 25.5 -13.5t58 4t69 7t68.5 7.5t58 6.5t26 4.5q21 5 44.5 -10t29.5 -43q6 -29 -9 -52.5t-30 -26.5
q0 -1 -31.5 -7.5t-71.5 -13t-90 -11.5t-101 -5q-44 0 -84 5.5t-70.5 18t-48 34t-17.5 53.5q0 20 7 44v1q4 14 23 44t49 68t67 82.5t76.5 90t79 90.5t90.5 99z" />
    <glyph glyph-name="braceleft" unicode="{" horiz-adv-x="466" 
d="M335 1161q28 5 50.5 -12t27.5 -45q3 -29 -14 -51.5t-55 -27.5q0 -8 -2 -24.5t-6.5 -45t-9 -65t-10.5 -74.5q-8 -46 -16.5 -92.5t-19 -90.5t-25.5 -81t-39 -72q21 -42 26.5 -90t5.5 -101q0 -31 -1 -63.5t-3 -63.5q-2 -33 -8.5 -62.5t-13 -52.5t-10 -42t13.5 -22
q29 -3 47 -24.5t15 -50.5q-3 -28 -24.5 -46t-50.5 -15q-34 4 -55.5 20t-34 41.5t-17 61.5t-4.5 78q0 29 1 59t3 60q2 40 4 79.5t2 72.5q0 40 -4.5 69.5t-18.5 35.5q-20 8 -29.5 25.5t-9.5 36.5q0 22 12 41.5t34 25.5q17 5 29 33.5t21 68t17.5 87.5t15.5 95q10 62 21 119
t28 101t42 72t65 32z" />
    <glyph glyph-name="bar" unicode="|" horiz-adv-x="295" 
d="M108 1125q0 15 5.5 27t15.5 21t23 14t28 4q14 0 26 -6t20.5 -15.5t13.5 -23t5 -27.5l-57 -1316q0 -15 -6 -27t-15.5 -20.5t-22.5 -14t-27 -4.5t-26.5 7t-21 15.5t-14 22.5t-5.5 28z" />
    <glyph glyph-name="braceright" unicode="}" horiz-adv-x="466" 
d="M131 -151q-28 -5 -50.5 12t-27.5 45q-3 29 14 51.5t55 27.5q0 8 2 24.5t6.5 45t9 65t10.5 74.5q8 46 16.5 92.5t19 90.5t25.5 81t39 72q-21 42 -26.5 90t-5.5 101q0 31 1 63.5t3 63.5q2 33 8.5 62.5t13 52.5t10 42t-13.5 22q-29 3 -47 24.5t-15 50.5q3 28 24.5 46
t50.5 15q34 -4 55.5 -20t34 -41.5t17 -61.5t4.5 -78q0 -29 -1 -59t-3 -60q-2 -40 -4 -79.5t-2 -72.5q0 -40 4.5 -69.5t18.5 -35.5q20 -8 29.5 -25.5t9.5 -36.5q0 -22 -12 -41.5t-34 -25.5q-17 -5 -29 -33.5t-21 -68t-17.5 -87.5t-15.5 -95q-10 -62 -21 -119t-28 -101
t-42 -72t-65 -32z" />
    <glyph glyph-name="asciitilde" unicode="~" horiz-adv-x="620" 
d="M191 795q-6 -29 -30 -44t-53 -9q-28 5 -43 28.5t-10 51.5q13 44 36 78q19 29 53 52.5t87 23.5q33 0 55.5 -7.5t36.5 -19t23 -27.5t21 -42q23 13 36 23t25 20.5t20.5 19l8.5 8.5q17 15 44 15q30 0 51 -22q10 -10 14 -22.5t4 -24.5q0 -14 -5 -27t-15 -23q-33 -29 -68 -54
q-30 -20 -65 -36.5t-68 -16.5q-27 0 -44 7t-28.5 17.5t-19 26t-16.5 33.5q1 -1 5 6.5t-15 7.5q-12 0 -20 -6.5t-13 -15.5q-5 -10 -7 -21z" />
    <glyph glyph-name="copyright" unicode="&#xa9;" horiz-adv-x="975" 
d="M132 746q8 11 23 12.5t24 -2.5q0 -1 1 -1q11 42 28.5 73.5t49.5 58.5q41 31 101.5 50t157.5 19q3 0 6.5 -0.5t7.5 -0.5h16h13.5t11.5 -1q2 0 3 -0.5t3 -0.5q92 -8 156.5 -49t107.5 -106q42 -63 61 -139.5t17 -161.5q0 -8 -0.5 -14.5t-1.5 -13.5q-1 -5 -1 -8.5v-8.5
q-10 -94 -37 -173.5t-82 -139.5q-57 -60 -144 -93.5t-218 -29.5q-57 2 -105.5 16.5t-90.5 40.5q-48 30 -84.5 72.5t-61.5 93.5q-50 106 -47 226q2 71 22.5 142.5t62.5 137.5v1zM206 672q-14 0 -28 19q-35 -65 -48 -119t-15 -108q-2 -109 40 -195q40 -89 120 -141v1
q35 -20 75 -32.5t88 -14.5q113 -3 188 24t122 78q49 53 71.5 123t30.5 152q1 5 1.5 10t0.5 10v20q2 73 -14 141t-51 120q-35 50 -89 85t-126 43q-3 1 -13 1h-31q-4 0 -7.5 0.5t-7.5 0.5q-80 0 -131 -14.5t-82 -40.5q-30 -26 -43.5 -60.5t-16.5 -71.5q-1 -14 -12 -23.5
t-22 -7.5v0zM536 698q-11 0 -25 -1.5t-28 -3.5q-14 -3 -22 -5.5t-15 -5.5l-6 -2l4 1q-48 -21 -83.5 -65.5t-47.5 -115.5v1q-3 -20 -5 -36.5t-2 -33.5q0 -28 5 -51.5t13 -43.5q8 -14 17.5 -26.5t22.5 -19.5q28 -20 64 -28q9 -2 19.5 -2.5t19.5 -0.5q40 0 83 11.5t91 34.5
q13 5 27 1t19 -17q5 -12 1 -25.5t-16 -18.5q-56 -27 -108 -40t-97 -13q-14 0 -26.5 1t-22.5 3q-26 4 -50 14t-42 22q-19 14 -35 33.5t-27 43.5q-25 50 -25 123q0 18 2 39t6 41q17 86 63 145t109 85q14 6 27 10t25 7h-1q13 4 29 5.5t34 1.5q45 2 80 -6.5t58 -24.5
q20 -17 29 -33v1q12 -18 12 -44q2 -40 -27 -79v1q-7 -12 -20 -15t-26 4q-12 9 -14.5 22.5t5.5 25.5l-1 -1q16 27 16 41q0 4 -4 12l1 -1q-2 3 -12 12l2 -1q-34 19 -96 18z" />
    <glyph glyph-name="onequarter" unicode="&#xbc;" horiz-adv-x="1102" 
d="M88 544q-16 0 -27 11.5t-11 27.5t11 27t27 11h67l63 470l-85 -55q-9 -6 -21 -6q-9 0 -17 4.5t-15 12.5q-6 9 -6 21q0 10 4.5 18t12.5 14l156 104q3 3 8 4t10 1q10 0 17 -3t12.5 -9t9 -14t1.5 -16l-73 -546h63q16 0 27 -11t11 -27t-11 -27.5t-27 -11.5h-207zM931 252
q2 16 14 26t28 9q16 -2 26 -13.5t9 -27.5l-16 -159h15h1q17 2 29 -8.5t13 -26.5q2 -16 -8.5 -28t-25.5 -14q-1 0 -30 -3l-18 -195q-2 -16 -14 -26t-28 -9q-16 2 -26 14t-8 28l17 185h-45q-44 0 -89 2.5t-80 10t-53.5 19t-16.5 28.5q1 9 13.5 30.5t31 50.5t42.5 62.5t48 68
t47.5 66t42 56t30.5 40.5t12 15q4 6 12 9.5t17 3.5q13 0 23 -7q16 -13 16 -31q0 -13 9 -3q0 3 -18.5 -20.5t-34.5 -44t-36.5 -46.5t-41.5 -54t-41.5 -55t-37 -50t-28 -40t-12.5 -24q-5 -11 10 -16t31.5 -7.5t37.5 -4t45 -1.5q16 0 31.5 1t38.5 3zM364 143q-4 -9 -13 -13.5
t-18 -4.5q-10 0 -20 6q-9 6 -13.5 15t-4.5 18q0 11 5 19q12 12 34.5 44.5t53 79t65.5 102t71 111.5t70.5 109t63 95t48.5 68t29 31q12 13 29 13q15 0 26 -10q7 -7 10 -14t3 -14t-3 -14t-9 -14z" />
    <glyph glyph-name="onehalf" unicode="&#xbd;" horiz-adv-x="1192" 
d="M88 544q-16 0 -27 11.5t-11 27.5t11 27t27 11h67l63 470l-85 -55q-9 -6 -21 -6q-9 0 -17 4.5t-15 12.5q-6 9 -6 21q0 10 4.5 18t12.5 14l156 104q3 3 8 4t10 1q10 0 17 -3t12.5 -9t9 -14t1.5 -16l-73 -546h63q16 0 27 -11t11 -27t-11 -27.5t-27 -11.5h-207zM364 143
q-4 -9 -13 -13.5t-18 -4.5q-10 0 -20 6q-9 6 -13.5 15t-4.5 18q0 11 5 19q12 12 34.5 44.5t53 79t65.5 102t71 111.5t70.5 109t63 95t48.5 68t29 31q12 13 29 13q15 0 26 -10q7 -7 10 -14t3 -14t-3 -14t-9 -14zM813 442q1 -17 -10 -29.5t-26 -12.5q-17 -1 -28.5 10t-11.5 27
q1 49 17.5 81t48.5 53q55 39 150 43q59 0 94 -15.5t56 -42.5q19 -23 29 -52t10 -61q0 -37 -13 -71t-37 -70q-17 -25 -39 -49.5t-46 -49t-50 -47t-51 -42.5q-20 -19 -37.5 -34.5t-53.5 -48.5q63 5 95 5q38 0 70.5 -2t56.5 -4q29 -3 53 -5q15 -2 25 -15t8 -28
q-2 -17 -14.5 -26t-19.5 -8l-18 1.5t-40 4t-53 4t-65 1.5q-40 0 -83 -2.5t-85 -10.5q-10 -2 -19.5 2t-15.5 11.5t-8.5 17.5t0.5 20q9 22 23.5 43t34 42t44.5 43t53 46q20 17 43 38.5t47 44t45.5 46t35.5 44.5q19 26 28 49.5t9 49.5q0 38 -21 63q-12 15 -31 22.5t-56 7.5
q-72 -1 -111 -29q-16 -10 -24.5 -28t-8.5 -37z" />
    <glyph glyph-name="threequarters" unicode="&#xbe;" horiz-adv-x="1051" 
d="M313 143q-4 -9 -13 -13.5t-18 -4.5q-10 0 -20 6q-9 6 -13.5 15t-4.5 18q0 11 5 19q12 12 34.5 44.5t53 79t65.5 102t71 111.5t70.5 109t63 95t48.5 68t29 31q12 13 29 13q15 0 26 -10q7 -7 10 -14t3 -14t-3 -14t-9 -14zM152 1146q-6 -10 -15 -14.5t-18 -4.5q-11 0 -20 5
q-10 5 -14.5 14t-4.5 19q0 11 5 20q15 22 41 41q22 15 58 29t90 16q48 1 90 -16.5t66 -50.5q18 -24 27.5 -52.5t9.5 -58.5q0 -12 -2 -27q-4 -33 -23.5 -64.5t-53.5 -63.5q42 -33 63 -68t21 -76q-1 -23 -6 -46t-14 -43q-23 -51 -71.5 -82t-118.5 -33q-24 -1 -44.5 4t-39.5 13
t-35.5 18.5t-30.5 21.5q-31 26 -56 60q-6 10 -6 22q0 10 4 17t13 14q10 6 21 6q10 0 18 -4t14 -12q17 -24 39 -43q18 -15 44 -28t57 -12q45 1 76 19.5t46 50.5q7 15 10 29t3 31t-7.5 31.5t-20 27t-26.5 21.5t-32 18q-19 -6 -39 -6h-9.5t-9.5 1q-25 2 -52 18q-9 5 -13.5 13.5
t-4.5 18.5q0 13 7 23.5t22 14.5q10 3 19.5 4t20.5 1q28 0 57 -8q17 9 29.5 20t23.5 23.5t19.5 27.5t10.5 29q3 21 -2.5 43t-18.5 40q-15 19 -40 28t-51 7q-37 -1 -60.5 -8.5t-38.5 -14.5q-18 -10 -27 -24zM880 252q2 16 14 26t28 9q16 -2 26 -13.5t9 -27.5l-16 -159h15h1
q17 2 29 -8.5t13 -26.5q2 -16 -8.5 -28t-25.5 -14q-1 0 -30 -3l-18 -195q-2 -16 -14 -26t-28 -9q-16 2 -26 14t-8 28l17 185h-45q-44 0 -89 2.5t-80 10t-53.5 19t-16.5 28.5q1 9 13.5 30.5t31 50.5t42.5 62.5t48 68t47.5 66t42 56t30.5 40.5t12 15q4 6 12 9.5t17 3.5
q13 0 23 -7q16 -13 16 -31q0 -13 9 -3q0 3 -18.5 -20.5t-34.5 -44t-36.5 -46.5t-41.5 -54t-41.5 -55t-37 -50t-28 -40t-12.5 -24q-5 -11 10 -16t31.5 -7.5t37.5 -4t45 -1.5q16 0 31.5 1t38.5 3z" />
    <glyph glyph-name="Acomma" unicode="&#x60c;" horiz-adv-x="324" 
d="M142 173q46 3 65.5 -8t28.5 -28.5t7.5 -38.5t-12.5 -39.5t-30.5 -29.5t-48.5 -9q-24 1 -48 15t-36 42.5t-5 74t47 111.5q8 15 10.5 31.5t6 29t10 19t22.5 6.5q19 0 26.5 -8t8.5 -22t-5 -33.5t-14 -38.5t-16 -35t-17 -39z" />
    <glyph glyph-name="Asemicolon" unicode="&#x61b;" horiz-adv-x="324" 
d="M147 183q16 0 30 -6t24.5 -17.5t17 -26.5t6.5 -32t-6.5 -31.5t-17 -26t-24.5 -17.5t-30 -6t-31 6t-25.5 17.5t-16.5 26t-6 31.5t6 32t16.5 26.5t25.5 17.5t31 6zM143 414q46 3 65 -8t28 -28.5t7.5 -38.5t-12 -39t-30.5 -29.5t-48 -9.5q-25 1 -49 15t-35.5 42.5t-4.5 74.5
t46 111q9 15 11.5 31.5t6 29t9.5 19t22 6.5q19 0 26.5 -7.5t8.5 -22t-5 -34t-13.5 -38.5t-15.5 -35t-17 -39z" />
    <glyph glyph-name="Aquestion" unicode="&#x61f;" horiz-adv-x="729" 
d="M431 304q-17 38 -55.5 70.5t-84.5 64.5t-92.5 67.5t-81 79t-51 96t-2.5 122.5q12 52 45 84.5t81 51.5t105.5 25.5t115.5 6t112.5 -6t93.5 -9.5q16 -3 28 -12t20 -21.5t11 -27.5t1 -29q-7 -31 -33 -48.5t-57 -10.5q-13 2 -47.5 6.5t-79.5 7t-93.5 1t-88 -12t-65 -34
t-17.5 -65.5q3 -24 30 -56t65.5 -68t83.5 -74.5t86 -76.5t72 -72t41.5 -59.5t0 -41.5t-55.5 -22q-32 -5 -57.5 13t-30.5 51zM592 9q-16 -14 -40 -14t-39 12q-21 21 -35 49t-15 52t13 41t49 21q25 3 42 -5t27 -22t14.5 -33.5t3.5 -38.5t-6.5 -36t-13.5 -26z" />
    <glyph glyph-name="kashida" unicode="&#x640;" horiz-adv-x="91" 
d="M91 134q25 0 42.5 -18t17.5 -44t-17.5 -44t-42.5 -18h-91q-25 0 -42.5 18t-17.5 44t17.5 44t42.5 18h91z" />
    <glyph glyph-name="alefmaq" unicode="&#x649;" horiz-adv-x="1119" 
d="M573 96q52 -12 102.5 -28.5t90.5 -43t64 -66.5t25 -99q1 -50 -13.5 -89t-40.5 -67t-63 -46t-81 -25q-52 -10 -111 -4.5t-118.5 25.5t-117.5 54.5t-106.5 83.5t-86.5 112t-57 141q-5 17 -7.5 37t0 37t11.5 30.5t26 20.5q12 4 26 2.5t26 -8t20.5 -16.5t10.5 -23
q8 -93 49.5 -162t99 -115t123.5 -69t126 -24t106 21t61 67q11 32 -2.5 51t-39.5 30t-61.5 19t-74.5 18t-79 25.5t-75 41t-62.5 64.5t-41.5 96q-21 84 0.5 157.5t72.5 133t125.5 102.5t157.5 64.5t169.5 20t161.5 -29.5q31 -10 48 -26t24.5 -34t4.5 -35.5t-12 -30.5
q-33 -43 -58.5 -53.5t-48.5 -3.5q-133 34 -228.5 39.5t-161 -9t-103 -46.5t-50.5 -72t-5 -83.5t32 -81t61 -65.5t81 -38z" />
    <glyph glyph-name="alefmaq" unicode="&#xffef;" horiz-adv-x="1119" 
d="M573 96q52 -12 102.5 -28.5t90.5 -43t64 -66.5t25 -99q1 -50 -13.5 -89t-40.5 -67t-63 -46t-81 -25q-52 -10 -111 -4.5t-118.5 25.5t-117.5 54.5t-106.5 83.5t-86.5 112t-57 141q-5 17 -7.5 37t0 37t11.5 30.5t26 20.5q12 4 26 2.5t26 -8t20.5 -16.5t10.5 -23
q8 -93 49.5 -162t99 -115t123.5 -69t126 -24t106 21t61 67q11 32 -2.5 51t-39.5 30t-61.5 19t-74.5 18t-79 25.5t-75 41t-62.5 64.5t-41.5 96q-21 84 0.5 157.5t72.5 133t125.5 102.5t157.5 64.5t169.5 20t161.5 -29.5q31 -10 48 -26t24.5 -34t4.5 -35.5t-12 -30.5
q-33 -43 -58.5 -53.5t-48.5 -3.5q-133 34 -228.5 39.5t-161 -9t-103 -46.5t-50.5 -72t-5 -83.5t32 -81t61 -65.5t81 -38z" />
    <glyph glyph-name="dammatanA" unicode="&#x64c;" 
d="M-114 140q-35 33 -45 70.5t-0.5 73t36.5 67t64.5 53t83 30.5t91.5 -2q5 -3 7.5 -10t-2.5 -13q-5 -7 -11 -8t-13 4q-18 11 -48 8t-61 -15t-60 -32.5t-46 -47.5t-16.5 -60t28.5 -67q16 -17 21.5 -30t-1.5 -21q-4 -4 -12.5 -5t-15.5 5zM31 114q-42 25 -55.5 45.5t-13.5 51.5
q-1 35 16 64t42.5 43.5t53 10.5t50.5 -34q26 -35 31 -65t-5 -55t-33 -46.5t-54 -37.5t-66 -27t-67 -16q-29 -5 -47.5 -4.5t-29 3t-15.5 7t-7 7.5q-9 15 -1.5 20.5t34 9t65 6t102.5 17.5zM89 175q22 21 20 44t-18 36.5t-38.5 12.5t-42.5 -27q-9 -20 -4.5 -38.5t17.5 -31
t31 -13t35 16.5z" />
    <glyph glyph-name="Azero" unicode="&#x660;" horiz-adv-x="264" 
d="M188 38q-18 -17 -41 -18.5t-39 14.5q-23 24 -39 56.5t-17.5 61t13.5 48.5t54 24q27 3 45 -6t29 -25.5t16 -39t3.5 -44.5t-8 -41.5t-16.5 -29.5z" />
    <glyph glyph-name="Aone" unicode="&#x661;" horiz-adv-x="552" 
d="M172 748q25 -31 53.5 -79.5t58.5 -107t59.5 -122.5t57 -125t51.5 -114t42 -89q8 -16 6 -32.5t-12 -30.5t-24 -22.5t-28.5 -6.5t-30.5 17.5t-27 48.5q-13 38 -36 89.5t-51.5 110t-60 119.5t-61.5 116.5t-57 100.5t-46 73q-16 23 -10.5 45t22.5 34t42.5 8.5t51.5 -33.5z
" />
    <glyph glyph-name="Atwo" unicode="&#x662;" horiz-adv-x="615" 
d="M359 70q-15 45 -51 95.5t-78.5 104.5t-83.5 110t-66.5 110t-27.5 103.5t32 91.5q37 46 89 66.5t110.5 25.5t118.5 -0.5t112 -12.5q25 -5 38 -25t7 -45q-6 -24 -25.5 -37t-43.5 -9q-9 1 -36.5 5t-64 6t-75.5 1t-71.5 -9.5t-54 -28t-15.5 -55.5q3 -19 25 -52t52 -73.5
t65.5 -87t67 -92.5t56 -89t32.5 -75.5t-1 -51.5t-44 -24q-25 -4 -45 9.5t-22 38.5z" />
    <glyph glyph-name="Athree" unicode="&#x663;" horiz-adv-x="755" 
d="M705 716q-3 -84 -21.5 -140t-45 -86.5t-56.5 -38.5t-58 3t-52 40.5t-43 97.5q-17 -30 -28.5 -51t-24 -43t-24 -37.5t-25.5 -21.5q50 -94 91 -176t74 -158q11 -25 0 -48t-36 -33q-23 -9 -46.5 1t-33.5 36q-13 27 -30.5 68t-39.5 90.5t-47.5 103.5t-53.5 108t-59.5 104
t-64.5 89q-9 12 -16 21.5t-11 18.5t-3 19t9 25q13 28 28.5 35t34 0.5t39 -24t41 -40.5t40 -47.5t44.5 -50.5q21 30 38 59t32 57t27.5 46.5t16.5 19.5q25 4 43.5 -11t32.5 -40.5t25 -56.5t25 -59q37 -1 43.5 30.5t7.5 89.5q0 27 18.5 45t45.5 18q26 0 44.5 -18t18.5 -45z" />
    <glyph glyph-name="Afour" unicode="&#x664;" horiz-adv-x="591" 
d="M356 733q-14 -13 -39 -38.5t-53 -54.5t-53.5 -59.5t-46.5 -65.5q58 -11 105 -14t88 -7t69 -12.5t36 -25.5t-7 -51t-64 -90q-9 -8 -23 -25t-28.5 -36.5t-25.5 -39.5t-11 -40q16 -15 40.5 -20t52.5 -9.5t55.5 -10t48 -17.5t31 -31.5t6.5 -50.5q-4 -22 -21.5 -35t-39.5 -9
q-68 18 -126 32t-98.5 32t-61 41t-18 57.5t33 88t108.5 145.5q-64 7 -107 12t-67 10q-46 9 -66 28t-22 44.5t10.5 56.5t34.5 64.5t49 65.5t53 60t46.5 48.5t29.5 30.5q16 15 38 16t38 -13q18 -17 19 -39t-14 -38z" />
    <glyph glyph-name="Afive" unicode="&#x665;" horiz-adv-x="666" 
d="M151 394q-4 -71 15.5 -118t52.5 -73.5t74.5 -33.5t80.5 3t71 34.5t46.5 61t5.5 82t-50 97.5q-49 62 -99.5 93.5t-93 27t-70.5 -47.5t-33 -126zM116 622q13 58 45 79t73 18.5t88 -25t86 -52.5q87 -70 134 -142.5t60.5 -140.5t0 -128t-47 -105t-81 -73t-102.5 -31
q-81 -6 -140.5 22.5t-98.5 78.5t-59.5 116t-22 135t14.5 134t50 114z" />
    <glyph glyph-name="Asix" unicode="&#x666;" horiz-adv-x="808" 
d="M171 723q5 -30 29 -44.5t56.5 -18.5t69.5 0t70.5 14t62 24.5t42.5 30.5q20 23 42.5 31.5t40 5t27 -17.5t6.5 -40q-7 -43 -18 -96.5t-11.5 -115.5t16 -131.5t66.5 -143.5q4 -8 21 -30t53 -73q14 -20 9.5 -44.5t-25.5 -39.5q-28 -18 -52.5 -12.5t-47.5 30.5t-43 66
t-36.5 90.5t-28.5 103t-20 103t-11 91t0 81.5q-80 -26 -151 -34.5t-131 4.5t-102 50t-53 106q-2 25 13.5 44t40.5 22q24 2 43.5 -14.5t21.5 -41.5z" />
    <glyph glyph-name="Aseven" unicode="&#x667;" horiz-adv-x="733" 
d="M388 261q19 69 32 119t27.5 101.5t30 101.5t31.5 90.5t31.5 66.5t29.5 33q17 10 35 9t33 -9t26.5 -21.5t15 -29t-2 -31t-22.5 -29.5q-19 -16 -37 -48.5t-34.5 -75.5t-32.5 -93t-31 -102t-29.5 -102.5t-27.5 -93.5q-21 -68 -37.5 -98t-28.5 -29.5t-30.5 32t-45.5 98.5
q-21 54 -45.5 121t-54 134.5t-65.5 129.5t-81 107q-11 9 -16.5 21t-7 24.5t2 24.5t12.5 23q24 28 47 28.5t47.5 -19.5t49 -58.5t47 -85t41.5 -96t34.5 -93.5t27.5 -77.5t28 -72.5z" />
    <glyph glyph-name="Aeight" unicode="&#x668;" horiz-adv-x="734" 
d="M345 541q-20 -68 -33.5 -117.5t-28.5 -101.5t-30.5 -102t-31.5 -90.5t-31 -67.5t-29 -34q-25 -14 -51.5 -5.5t-42.5 28.5t-16.5 44.5t25.5 45.5q20 15 37.5 48t34 76t32 93t31 101.5t29.5 101.5t28 93q22 68 38.5 98.5t28 30t30 -32t44.5 -98.5q22 -54 47 -120.5
t54.5 -134t65 -129t80.5 -106.5q22 -19 25 -46t-16 -46q-24 -30 -47 -30.5t-47.5 19.5t-48.5 58t-47 84.5t-42.5 96.5t-35 94t-26 77t-26.5 72z" />
    <glyph glyph-name="Anine" unicode="&#x669;" horiz-adv-x="786" 
d="M481 392q-38 -68 -73.5 -92.5t-76 -31t-82 3.5t-78 34.5t-65 63t-42.5 88.5q-14 52 -4.5 101t36.5 90.5t67.5 72.5t85.5 47t92 15t87.5 -23.5t71.5 -68.5t46 -121q7 -37 18.5 -96t31.5 -125t52 -131.5t80 -113.5q8 -14 6.5 -31.5t-15.5 -30.5q-15 -21 -38.5 -23.5
t-43.5 14.5q-28 18 -49.5 47t-37.5 63.5t-27 70t-18 66t-11.5 53.5t-12.5 58zM457 477q-5 10 -7.5 19t-5.5 20.5t-6.5 22t-5.5 14.5q-24 57 -56 83.5t-66 28.5t-64 -14.5t-51 -44.5t-28.5 -63t5.5 -68q17 -44 52 -61t75 -14t81 22.5t77 54.5z" />
    <glyph glyph-name="Adecimal" unicode="&#x66b;" horiz-adv-x="296" 
d="M146 31q-46 10 -61 26t-18.5 35.5t3.5 39t22 34.5t37.5 20.5t48.5 -4.5q24 -9 43.5 -28.5t22 -50.5t-17.5 -73t-76 -94q-13 -12 -20 -27t-14 -26t-15 -15.5t-23 0.5q-18 5 -23 15t-1.5 23.5t14.5 30.5t24 33t25.5 29t28.5 32z" />
    <glyph glyph-name="Athousandsep" unicode="&#x66c;" horiz-adv-x="296" 
d="M146 31q-46 10 -61 26t-18.5 35.5t3.5 39t22 34.5t37.5 20.5t48.5 -4.5q24 -9 43.5 -28.5t22 -50.5t-17.5 -73t-76 -94q-13 -12 -20 -27t-14 -26t-15 -15.5t-23 0.5q-18 5 -23 15t-1.5 23.5t14.5 30.5t24 33t25.5 29t28.5 32z" />
    <glyph glyph-name="Afullstop" unicode="&#x6d4;" horiz-adv-x="256" 
d="M128 183q16 0 30 -6t24.5 -17.5t17 -26.5t6.5 -32t-6 -31.5t-17 -26t-25 -17.5t-30 -6t-30 6t-25 17.5t-17 26t-6 31.5t6.5 32t17 26.5t24.5 17.5t30 6z" />
    <glyph glyph-name="quotedblleft" unicode="&#x201c;" horiz-adv-x="566" 
d="M443 810q30 -34 21 -68q-8 -28 -31.5 -42t-53.5 -6q-27 6 -49 24q-20 18 -27.5 40t-5.5 50q5 34 25 66q16 26 39.5 49t45.5 40q18 14 40 14q34 0 55 -30q14 -18 14 -40q0 -17 -7.5 -31t-21.5 -24q-10 -7 -19 -16.5t-25 -25.5zM195 818q21 -18 27 -33t3 -33
q-4 -27 -27 -44.5t-52 -13.5t-50 18q-24 16 -34 37.5t-12 48.5q1 17 5 34.5t13 34.5q13 26 32.5 52.5t40.5 45.5q17 15 38 18q17 3 31.5 -3t26.5 -20q16 -17 19 -38q2 -16 -3.5 -31t-17.5 -26q-11 -9 -18.5 -19.5t-21.5 -27.5z" />
    <glyph glyph-name="quotedblright" unicode="&#x201d;" horiz-adv-x="566" 
d="M122 860q-29 33 -20 68q7 27 31.5 41t52.5 7t50 -24q19 -19 27 -41t6 -49q-6 -35 -25 -67q-16 -25 -40 -48.5t-45 -40.5q-18 -13 -40 -13q-34 0 -55 30q-14 18 -14 39q0 18 7.5 32t21.5 24q9 6 18.5 15.5t24.5 26.5zM371 851q-21 18 -27 33.5t-3 33.5q2 13 9 24.5
t17.5 19.5t24 12t28.5 2q29 -5 50 -19q24 -16 34 -37.5t12 -47.5q-1 -16 -5.5 -33.5t-13.5 -35.5q-12 -26 -32 -52.5t-40 -46.5q-17 -15 -38 -18q-17 -2 -32 3.5t-26 19.5q-17 17 -19 38q-2 17 3.5 32t17.5 25q10 9 18 19.5t22 27.5z" />
    <glyph glyph-name="NULL" 
 />
    <glyph glyph-name="percent" horiz-adv-x="739" 
d="M74 165q16 45 50 105.5t77.5 127t93 136.5t96.5 135.5t88 122.5t67 99q13 18 32.5 26t41 6t38.5 -12.5t24 -28t1 -43t-36 -58.5q-31 -36 -71 -91t-84 -120.5t-89 -135t-84.5 -134.5t-71 -120.5t-48.5 -92.5q-10 -22 -26 -32.5t-33 -11.5t-33.5 6.5t-27 23t-13.5 39
t8 53.5zM111 891q33 17 61 11t48 -26.5t31.5 -52t10.5 -63t-15.5 -58t-45.5 -39.5q-35 -15 -63 -8.5t-47.5 26.5t-30 49.5t-9 60.5t15.5 58t44 42zM219 779q3 30 -16 46.5t-43 17.5t-45.5 -13.5t-22.5 -46.5q-1 -28 16.5 -46t41 -21t44 11.5t25.5 51.5zM496 316q34 17 62 11
t48 -27t31.5 -53t10.5 -63.5t-15.5 -58t-44.5 -39.5q-35 -15 -63 -8.5t-47.5 26.5t-30.5 50.5t-9.5 61.5t15.5 58t43 42zM606 202q3 30 -16 46.5t-43 18t-46 -12.5t-23 -47q-1 -28 16.5 -46t40.5 -21.5t44.5 11t26.5 51.5z" />
    <glyph glyph-name="shaddaA.fathatanA" 
d="M127 245q28 -23 40.5 -48t12.5 -48.5t-9 -42t-23.5 -28t-33.5 -8.5t-48 25q-21 -41 -50 -52.5t-59 -3t-53.5 38.5t-25.5 82q0 11 7.5 18.5t15 9t13 -3.5t5.5 -25q2 -9 6.5 -22t12.5 -23.5t20 -18.5t28 -4q18 4 23 16t2.5 24.5t-7.5 24.5t-9 21q-6 22 -1 34t10 13
q12 2 18.5 -3.5t11 -18t8 -29t10.5 -30.5t20.5 -21.5t36.5 2.5q11 5 18.5 12.5t7.5 19t-9 24t-29 27.5q-10 7 -12 15t5 18q6 10 17 11t20 -6zM119 361q-61 -60 -135.5 -91t-160.5 -14q-13 3 -17 12t-2 18.5t10.5 15t22.5 2.5q35 -6 69 -1.5t65.5 17.5t60 32.5t53.5 43.5
q9 10 18 9t16 -7.5t8 -17t-8 -19.5zM70 474q-61 -59 -136 -90t-159 -13q-14 3 -18 11.5t-2 18t10.5 16t21.5 3.5q36 -8 70 -4t65.5 17t59.5 33t53 45q8 9 18.5 7.5t17.5 -8t8 -16.5t-9 -20z" />
    <glyph glyph-name="shaddaA.dammatanA" 
d="M106 245q28 -23 41 -48t13 -48.5t-8.5 -42t-23.5 -28t-34 -8.5t-49 24q-21 -40 -50.5 -51.5t-59.5 -3t-53 38.5t-25 82q0 11 7.5 18.5t15 9t13 -3.5t5.5 -25q2 -9 5.5 -22t12 -23.5t20.5 -18.5t29 -4q17 5 21.5 16.5t2 24t-7 24t-7.5 21.5q-6 23 -2 34.5t12 12.5
q11 2 17.5 -3.5t11 -18t8 -29t11 -30.5t21.5 -21.5t38 2.5q9 5 17 12.5t7 19.5t-10 24t-29 27q-10 7 -13 15.5t4 17.5q6 9 18 10.5t21 -5.5zM-129 337q-29 25 -37 55t-1 58t28 53t51 42.5t66 24t72 -1.5q4 -3 5 -6.5t-3 -7.5q-3 -4 -7 -5.5t-7 1.5q-16 8 -40.5 6t-49.5 -12
t-48.5 -26.5t-38 -38.5t-13.5 -48.5t24 -54.5q12 -12 16 -22.5t-1 -15.5q-3 -4 -8 -4t-8 3zM-12 318q-37 22 -48.5 38t-11.5 45q0 28 14.5 51.5t34 34.5t42.5 7.5t41 -28.5q33 -43 27.5 -76.5t-32.5 -59.5t-69.5 -43.5t-83.5 -23.5q-25 -3 -40.5 -2.5t-24.5 3t-12.5 5.5
t-5.5 6q-7 11 -1.5 15t28 7t55 5t87.5 16zM34 366q20 18 18 38.5t-15.5 32t-33.5 10.5t-36 -24q-9 -15 -5.5 -31t14 -27t27 -12t31.5 13z" />
    <glyph glyph-name="shaddaA.kasratanB" 
d="M11 531q28 -23 40.5 -48t13 -48.5t-9 -41.5t-24 -28t-32.5 -9t-48 24q-22 -40 -51.5 -51t-59.5 -2.5t-53 38t-25 81.5q0 11 7 18.5t14.5 9t13.5 -3.5t6 -25q1 -9 5.5 -22t12 -23.5t19.5 -18.5t29 -4q18 5 22 16.5t2.5 24t-6.5 24t-7 21.5q-7 23 -3 34.5t12 12.5
q12 3 17.5 -3t10.5 -18.5t8.5 -28.5t10 -30.5t21 -22t37.5 2.5q11 5 18.5 12.5t7.5 19t-9.5 24t-29.5 27.5q-10 7 -13 15.5t3 17.5q7 9 19 10.5t21 -5.5zM-168 195q30 30 65 53.5t71.5 37.5t76.5 17.5t83 -5.5q13 -3 17 -11.5t2 -17.5t-10.5 -15.5t-21.5 -4.5
q-72 15 -135 -13.5t-112 -77.5q-9 -8 -18.5 -7t-16.5 8.5t-8.5 17t7.5 18.5zM-118 80q30 30 64.5 53.5t71.5 38t76.5 18.5t82.5 -5q13 -3 17 -12t2 -18.5t-10 -15.5t-21 -2q-37 6 -71 1.5t-65.5 -17.5t-59 -32.5t-52.5 -43.5q-9 -10 -18 -8.5t-16.5 8.5t-8.5 16.5t8 18.5z
" />
    <glyph glyph-name="shaddaA.fathaA" 
d="M103 245q28 -23 40.5 -48t12.5 -48.5t-9 -42t-23.5 -28t-33.5 -8.5t-48 25q-21 -41 -50 -52.5t-59 -3t-53.5 38.5t-25.5 82q0 11 7.5 18.5t15 9t13 -3.5t5.5 -25q2 -9 6.5 -22t12.5 -23.5t20 -18.5t28 -4q18 4 23 16t2.5 24.5t-7.5 24.5t-9 21q-6 22 -1 34t10 13
q12 2 18.5 -3.5t11 -18t8 -29t10.5 -30.5t20.5 -21.5t36.5 2.5q11 5 18.5 12.5t7.5 19t-9 24t-29 27.5q-10 7 -12 15t5 18q6 10 17 11t20 -6zM95 361q-61 -60 -135.5 -91t-159.5 -14q-14 3 -18 12t-2 18.5t10.5 15t22.5 2.5q35 -6 69 -1.5t65.5 17.5t60 32.5t53.5 43.5
q9 10 18 9t16 -7.5t8 -17t-8 -19.5z" />
    <glyph glyph-name="shaddaA.dammaA" 
d="M87 245q28 -23 40.5 -48t13 -48.5t-8.5 -42t-23.5 -28t-33.5 -8.5t-49 24q-16 -30 -33 -41.5t-37 -15t-40.5 2t-37 20.5t-28 40t-12.5 60q0 11 7 18.5t14.5 9t13.5 -3.5t6 -25q2 -9 5.5 -22t11.5 -23.5t20.5 -18.5t29.5 -4q17 5 21.5 16.5t2 24t-7 24t-7.5 21.5
q-6 23 -2 34.5t12 12.5q11 2 17.5 -3.5t11 -18t8 -29t10.5 -30.5t21 -21.5t38 2.5q9 5 16.5 12.5t7.5 19t-9 24t-29 27.5q-10 7 -13 15.5t4 17.5q6 9 18 10.5t21 -5.5zM-31 318q-37 23 -49 38.5t-12 44.5q0 28 14 51.5t34.5 34.5t43 7.5t40.5 -28.5q33 -43 28 -76.5
t-32.5 -59.5t-70 -43.5t-82.5 -23.5q-25 -3 -40.5 -2.5t-24.5 3t-13 5.5t-6 6q-7 11 -1 15t28.5 7t55 5t87.5 16zM15 366q20 18 18 38.5t-15.5 32t-33.5 10.5t-36 -24q-9 -15 -5.5 -31t14 -27t27 -12t31.5 13z" />
    <glyph glyph-name="shaddaA.kasraB" 
d="M36 418q28 -23 40.5 -48t13 -48.5t-9 -41.5t-24 -28t-32.5 -9t-48 24q-22 -40 -51.5 -51t-59.5 -2.5t-53 38t-25 81.5q0 11 7 18.5t14.5 9t13.5 -3.5t6 -25q1 -9 5.5 -22t12 -23.5t19.5 -18.5t29 -4q18 5 22 16.5t2.5 24t-6.5 24t-7 21.5q-7 23 -3 34.5t12 12.5
q12 3 17.5 -3t10.5 -18.5t8.5 -28.5t10 -30.5t21 -22t37.5 2.5q11 5 18.5 12.5t7.5 19t-9.5 24t-29.5 27.5q-10 7 -13 15.5t3 17.5q7 9 19 10.5t21 -5.5zM-143 82q30 30 65 53.5t71.5 37.5t76.5 17.5t83 -5.5q13 -3 17 -11.5t2 -17.5t-10.5 -15.5t-21.5 -4.5
q-72 15 -135 -13.5t-112 -77.5q-9 -8 -18.5 -7t-16.5 8.5t-8.5 17t7.5 18.5z" />
    <glyph glyph-name="shaddaA.sukunA" 
d="M-118 458q22 11 41.5 7t33.5 -18t22 -36.5t7 -44t-11 -40t-31 -27.5q-24 -10 -43 -5.5t-32.5 18.5t-21 35t-6.5 42.5t10.5 40t30.5 28.5zM-38 379q1 23 -13.5 35.5t-32.5 13.5t-34 -10t-17 -34q-1 -22 12 -36t30.5 -16.5t34 8.5t20.5 39zM68 245q28 -23 40 -48
t12.5 -48.5t-9 -42t-24 -28t-33 -8.5t-47.5 25q-21 -41 -50.5 -52.5t-59 -3t-53 38.5t-25.5 82q0 11 7 18.5t14.5 9t13.5 -3.5t6 -25q1 -9 5 -21.5t11.5 -23.5t20 -19t29.5 -4q18 4 23 16t3 24.5t-7.5 24.5t-8.5 21q-6 22 -1.5 34t10.5 13q12 2 18 -3.5t10.5 -18t8 -29
t10.5 -30.5t20.5 -21.5t37.5 2.5q11 5 18.5 12.5t7.5 19t-9.5 24t-28.5 27.5q-10 7 -12 15t4 18q7 10 17.5 11t20.5 -6z" />
    <glyph glyph-name=".notdef.001" horiz-adv-x="1736" 
 />
    </font>
</defs>
</svg>
